[ Сегодня на трекере фрилич! Идет свободное скачивание без начисления Download ]

В осаде / Suddenly (Уве Болл / Uwe Boll) [2013, триллер, HDRip] MVO [Лицензия]

 

Создавать темы 16-Дек-2013 16:39

--В осаде / Suddenly-- Год выхода: 2013
Страна: Канада, США
Производство: Canadian Film or Video Production Tax Credit (CPTC), Nasser Entertainment Group, ...
Жанр: триллер
Продолжительность: 01:30:09
Перевод: Профессиональный (многоголосый закадровый) [Лицензия]-Премьера (мир): 8 августа 2013
Релиз на DVD: 12 декабря 2013, «CP Дистрибуция», ...-Режиссер: Уве Болл / Uwe Boll-В ролях: Рэй Лиотта, Эрин Карплак, Доминик Пёрселл, Дон Маккэй, Коул Кокер, Тайрон Лейтсо, Майкл Паре, Стив Бачич, Гари Чок, Брендан Флетчер...-О фильме: Четверо убийц во главе с Бароном, представляются агентами секретной службы, чтобы реквизировать дом вдовы Эллен. Ее дом играет роль снайперской позиции в их плане покушения на президента во время его визита в маленький городок под названием Садденли. Убийцы провели всех местных полицейских, кроме одного — пьяницы Тодда, который служил вместе с покойным супругом Эллен…--Качество: HDRip
Формат: AVI
Видео кодек: XviD
Аудио кодек: АС3
Видео: 720x400 (1.80:1), 23.976 fps, XviD MPEG-4, ~1702 kbps avg, 0.247 bit/pixel
Аудио: 48.0 kHz, AC3 Dolby Digital, 3/2 (L,C,R,l,r) + LFE ch, ~448.00 kbps avg
Субтитры: нет--
--

MediaInfo

Общее
Полное имя                               : E:\uTorDown\uTorrent\Films\V.osade.2013.P.HDRip.1400Mb_[pirat.ca].avi
Формат                                   : AVI
Формат/Информация                        : Audio Video Interleave
Размер файла                             : 1,36 Гбайт
Продолжительность                        : 1 ч. 30 м.
Общий поток                              : 2160 Кбит/сек
Программа кодирования                    : VirtualDubMod 1.5.10.2 (build 2540/release)
Библиотека кодирования                   : VirtualDubMod build 2540/release
Видео
Идентификатор                            : 0
Формат                                   : MPEG-4 Visual
Профиль формата                          : Advanced [email protected]
Параметр BVOP формата                    : 2
Параметр QPel формата                    : Нет
Параметр GMC формата                     : Без точки перехода
Параметр матрицы формата                 : Default (H.263)
Идентификатор кодека                     : XVID
Идентификатор кодека/Подсказка           : XviD
Продолжительность                        : 1 ч. 30 м.
Битрейт                                  : 1702 Кбит/сек
Ширина                                   : 720 пикселей
Высота                                   : 400 пикселей
Соотношение сторон                       : 16:9
Частота кадров                           : 23,976 кадра/сек
Цветовое пространство                    : YUV
Субдискретизация насыщенности            : 4:2:0
Битовая глубина                          : 8 бит
Тип развёртки                            : Прогрессивная
Метод сжатия                             : С потерями
Бит/(Пиксели*Кадры)                      : 0.247
Размер потока                            : 1,07 Гбайт (79%)
Библиотека кодирования                   : XviD 1.2.1 (UTC 2008-12-04)
Аудио
Идентификатор                            : 1
Формат                                   : AC-3
Формат/Информация                        : Audio Coding 3
Расширение режима                        : CM (complete main)
Параметр Endianness формата              : Big
Идентификатор кодека                     : 2000
Продолжительность                        : 1 ч. 30 м.
Вид битрейта                             : Постоянный
Битрейт                                  : 448 Кбит/сек
Каналы                                   : 6 каналов
Расположение каналов                     : Front: L C R, Side: L R, LFE
Частота                                  : 48,0 КГц
Битовая глубина                          : 16 бит
Метод сжатия                             : С потерями
Размер потока                            : 289 Мбайт (21%)
Выравнивание                             : Разделение по промежуткам
Продолжительность промежутка             : 42  мс. (1,00 видеокадр)
Время предзагрузки промежутка            : 500  мс.

Скриншот с названием фильма:

Скриншоты

-http://www.youtube.com/watch?v=j3-ZLvxPHIk- --

Создавать темы 31-Янв-2016 13:56 (спустя 2 года 1 месяц)

Топик был перенесен из форума Зарубежные Новинки (HD*Rip/LQ, DVDRip) в форум Зарубежные Фильмы (HD*Rip/LQ, DVDRip, SATRip, VHSRip)
T_O_M
Яндекс.Метрика
Рейтинг@Mail.ru