Полицейская тачка / Cop Car (2015) WEB-DL [H.264/1080p-LQ] [VO]

 

Создавать темы 03-Сен-2015 01:13

- Полицейская тачка / Cop Car (2015) WEB-DL [H.264/1080p-LQ] - Производство: США, Audax Films, Audax Films, End Cue, Park Pictures
Жанр: Триллер
Режиссер: Джон Уоттс
Продюсер: Сэм Бисби, Andrew Kortschak, Коуди Райдер
Актеры: Кевин Бейкон, Джеймс Фридсон-Джексон, Хэйс Уэллфорд, Камрин Менхейм, Ши Уигхэм, Кэтлин Бентли, Джозеф Оливейра
Описание:
Два 10-летних мальчишки находят заброшенный полицейский автомобиль и решают присвоить его себе. Обычная детская игра начинает приобретать пугающие черты после того, как шериф небольшого городка отправляется на поиски своей пропавшей машины.
-Рейтинг MPAA: R
Дата мировой премьеры: 24 января 2015
Продолжительность: 01:27:47
Качество видео: WEB-DL
Перевод: Одноголосый закадровый, любительский (Paul Bunyan)
Вид субтитров: Вшитые отключаемые
Язык субтитров: Английский
Видео: AVC/H.264, 1916x796 (2.40:1), 4301 kbps, 23.976 fps
Аудио »1: 48 kHz, AC3 Dolby Digital, 3/2 (L,C,R,l,r) + LFE ch, ~384 kbps (Русский)
Аудио »2: 48 kHz, AC3 Dolby Digital, 3/2 (L,C,R,l,r) + LFE ch, ~384 kbps (Английский)
Семпл: Скачать

MI

Общее
Уникальный идентификатор : 235721716381779668155450506852413925605 (0xB15659E90AFB9074BD2EDC72E10EE8E5)
Полное имя : D:\Релизы\Полицейская.тачка.2015.WEB-DL.[1080p].nnm-club.mkv
Формат : Matroska
Версия формата : Version 2
Размер файла : 3,17 Гбайт
Продолжительность : 1 ч. 27 м.
Общий поток : 5172 Кбит/сек
Название фильма : Полицейская.тачка.2015.WEB-DL.[1080p].nnm-club
Дата кодирования : UTC 2015-08-17 16:20:09
Программа кодирования : mkvmerge v8.3.0 ('Over the Horizon') 64bit
Библиотека кодирования : libebml v1.3.1 + libmatroska v1.4.2
Видео
Идентификатор : 1
Формат : AVC
Формат/Информация : Advanced Video Codec
Профиль формата : [email protected]
Параметр CABAC формата : Да
Параметр ReFrames формата : 5 кадров
Идентификатор кодека : V_MPEG4/ISO/AVC
Продолжительность : 1 ч. 27 м.
Битрейт : 4301 Кбит/сек
Ширина : 1916 пикселей
Высота : 796 пикселей
Соотношение сторон : 2,40:1
Режим частоты кадров : Постоянный
Частота кадров : 23,976 кадра/сек
Цветовое пространство : YUV
Субдискретизация насыщенности : 4:2:0
Битовая глубина : 8 бит
Тип развёртки : Прогрессивная
Бит/(Пиксели*Кадры) : 0.118
Размер потока : 2,64 Гбайт (83%)
Заголовок : Полицейская.тачка.2015.WEB-DL.[1080p].nnm-club
Язык : English
Default : Да
Forced : Нет
Цветовой диапазон : Limited
Основные цвета : BT.709
Характеристики трансфера : BT.709
Коэффициенты матрицы : BT.709
Аудио #1
Идентификатор : 2
Формат : AC-3
Формат/Информация : Audio Coding 3
Расширение режима : CM (complete main)
Параметр Endianness формата : Big
Идентификатор кодека : A_AC3
Продолжительность : 1 ч. 27 м.
Вид битрейта : Постоянный
Битрейт : 384 Кбит/сек
Каналы : 6 каналов
Расположение каналов : Front: L C R, Side: L R, LFE
Частота : 48,0 КГц
Метод сжатия : С потерями
Размер потока : 241 Мбайт (7%)
Заголовок : Paul Bunyan
Язык : Russian
Default : Да
Forced : Нет
Аудио #2
Идентификатор : 3
Формат : AC-3
Формат/Информация : Audio Coding 3
Расширение режима : CM (complete main)
Параметр Endianness формата : Big
Идентификатор кодека : A_AC3
Продолжительность : 1 ч. 27 м.
Вид битрейта : Постоянный
Битрейт : 384 Кбит/сек
Каналы : 6 каналов
Расположение каналов : Front: L C R, Side: L R, LFE
Частота : 48,0 КГц
Метод сжатия : С потерями
Размер потока : 241 Мбайт (7%)
Заголовок : Original
Язык : English
Default : Нет
Forced : Нет
Текст
Идентификатор : 4
Формат : UTF-8
Идентификатор кодека : S_TEXT/UTF8
Идентификатор кодека/Информация : UTF-8 Plain Text
Язык : English
Default : Нет
Forced : Нет
Меню
00:00:00.000 : en:1
00:05:25.000 : en:2
00:10:04.000 : en:3
00:14:29.000 : en:4
00:20:30.000 : en:5
00:23:43.000 : en:6
00:27:53.000 : en:7
00:30:32.000 : en:8
00:34:43.000 : en:9
00:40:13.000 : en:10
00:43:31.000 : en:11
00:48:24.000 : en:12
00:52:50.000 : en:13
00:56:31.000 : en:14
01:00:37.000 : en:15
01:05:08.000 : en:16
01:08:58.000 : en:17
01:15:30.000 : en:18
01:19:43.000 : en:19
01:23:43.000 : en:20
Скриншоты:Время раздачи: 24/7, до 5 скачавших.
Яндекс.Метрика
Рейтинг@Mail.ru