[ Сегодня на трекере фрилич! Идет свободное скачивание без начисления Download ]

Эдем / Eden (Шиам Мадиражу) [2014, Триллер, драма, WEB-DLRip] [GreenРай Studio]

 

Создавать темы 29-Сен-2015 17:41

Эдем / Eden--
    Год выпуска » 2014
    Страна » Испания, Малайзия
    Жанр » Триллер, драма
    Продолжительность » 01:36:26
    Перевод » Многоголосый GreenРай Studio
    Субтитры » Отсутствуют
В ролях
» Джессика Лаундес, Джеймс Римар, Санг Кенг, Диего Бонета, Нэйт Паркер, Роб Майес, Юджин Саймон, Итан Пек, Марио Касас, Джои Поллари
Режиссёр
» Шиам Мадиражу
ОПИСАНИЕ:
» После падения самолета у берегов необитаемого острова, выжившие члены международной команды по футболу сталкиваются одновременно и с дикой природой, и с ухудшением психики своих же товарищей.
    Качество » WEB-DLRip
    Формат » AVI
    Видео кодек » XviD
    Аудио кодек » AC3
    Видео » XviD at 1 958 kb/s, 720x304 at 23.976 fps
    Аудио » AC3, 192 kb/s, 2 канала, 48.0 КгцРусский
СЭМПЛ:--

Медиа инфо

Полное имя : D:\кино\Edem.2014.L.WEB-DLRip.1.46GB.avi
Формат : AVI
Формат/Информация : Audio Video Interleave
Размер файла : 1,45 Гбайт
Продолжительность : 1 ч. 36 м.
Общий поток : 2159 Кбит/сек
Программа кодирования : VirtualDubMod 1.5.10.2 (build 2540/release)
Библиотека кодирования : VirtualDubMod build 2540/release
Видео
Идентификатор : 0
Формат : MPEG-4 Visual
Профиль формата : Advanced [email protected]
Параметр BVOP формата : 2
Параметр QPel формата : Нет
Параметр GMC формата : Без точки перехода
Параметр матрицы формата : Default (MPEG)
Идентификатор кодека : XVID
Идентификатор кодека/Подсказка : XviD
Продолжительность : 1 ч. 36 м.
Битрейт : 1958 Кбит/сек
Ширина : 720 пикселей
Высота : 304 пикселя
Соотношение сторон : 2,35:1
Частота кадров : 23,976 кадра/сек
Цветовое пространство : YUV
Субдискретизация насыщенности : 4:2:0
Битовая глубина : 8 бит
Тип развёртки : Прогрессивная
Метод сжатия : С потерями
Бит/(Пиксели*Кадры) : 0.373
Размер потока : 1,32 Гбайт (91%)
Библиотека кодирования : XviD 1.2.1 (UTC 2008-12-04)
Аудио
Идентификатор : 1
Формат : AC-3
Формат/Информация : Audio Coding 3
Расширение режима : CM (complete main)
Параметр Endianness формата : Big
Идентификатор кодека : 2000
Продолжительность : 1 ч. 36 м.
Вид битрейта : Постоянный
Битрейт : 192 Кбит/сек
Каналы : 2 канала
Расположение каналов : Front: L R
Частота : 48,0 КГц
Метод сжатия : С потерями
Размер потока : 132 Мбайт (9%)
Выравнивание : Разделение по промежуткам
Продолжительность промежутка : 42 мс. (1,00 видеокадр)
Время предзагрузки промежутка : 500 мс.

Скриншоты:

Яндекс.Метрика
Рейтинг@Mail.ru