[ Сегодня на трекере фрилич! Идет свободное скачивание без начисления Download ]

Я плюю на ваши могилы 3 / I Spit on Your Grave 3 (2015) BDRip 720p | L2

 

Создавать темы 03-Окт-2015 21:28

-Я плюю на ваши могилы 3 / I Spit on Your Grave 3 (2015) BDRip [H.264/720p]- Производство: США, Cinetel Films
Жанр: Триллер, ужасы
Режиссер: Р.Д. Браунштейн
Продюсер: Лиза М. Хансен, Пол Хертцберг, Энтони Фанкхаузер
Актеры: Сара Батлер, Гэбриел Хоган, Даг МакКиэн, Карен Страссман, Дженнифер Лэндон, Кори Крэйг, Бобби Рид, Лони Перрин, Джошуа Ковальчик
Описание:
Дженнифер Хиллс до сих пор тревожат воспоминания жестокого сексуального насилия, которое она пережила несколько лет назад. Сбежав от них в другой город и изменив имя, она присоединяется к группе анонимных жертв насилия, которая помогает ей начать новую жизнь. Но когда жестокого убийцу и насильника ее новой подруги оправдывают и выпускают на свободу, Дженнифер решает делать то, что не делает система — она выслеживает виновных и заставляет их заплатить за свои страшные деяния самую высокую цену — их жизнь.
Дата мировой премьеры: 9 октября 2015
Дата премьеры в РФ: 1 октября 2015, «All Media»
Продолжительность: 01:31:31
Качество видео: BDRip
Перевод: Любительский двухголосый (Line Master`s)
Субтитры: Отсутствуют
Видео: AVC/H.264, 1280x534, 4540 kb/s,
Аудио 1 Rus: AC-3, 2 ch, 384 Кбит/сек - любительский
Аудио 2 Eng: AC-3, 6 ch, 640 Кбит/сек - оригинал

Mediainfo

Общее
Уникальный идентификатор : 219751535683101041801560430501481505657 (0xA5529B35CD8809E48A54DF33069D6379)
Полное имя : Я плюю на ваши могилы 3 (2015) 720p.mkv
Формат : Matroska
Версия формата : Version 4 / Version 2
Размер файла : 3,67 Гбайт
Продолжительность : 1 ч. 32 м.
Общий поток : 5677 Кбит/сек
Название фильма : Ya.Plu1y.Na.8ash1.Lainy.2015.L2.BDRip.720p.ELEKTRI4KA.uniongang.tv
Дата кодирования : UTC 2015-10-03 11:48:02
Программа кодирования : mkvmerge v8.3.0 ("Over the Horizon") 64bit
Библиотека кодирования : libebml v1.3.1 + libmatroska v1.4.2
DURATION : 01:32:34.464000000
NUMBER_OF_FRAMES : 173577
NUMBER_OF_BYTES : 266614272
_STATISTICS_WRITING_APP : mkvmerge v8.3.0 ("Over the Horizon") 64bit
_STATISTICS_WRITING_DATE_UTC : 2015-10-03 11:48:02
_STATISTICS_TAGS : BPS DURATION NUMBER_OF_FRAMES NUMBER_OF_BYTES
Видео
Идентификатор : 1
Формат : AVC
Формат/Информация : Advanced Video Codec
Профиль формата : [url=mailto:[email protected]][email protected][/url]
Параметр CABAC формата : Да
Параметр ReFrames формата : 9 кадров
Идентификатор кодека : V_MPEG4/ISO/AVC
Продолжительность : 1 ч. 32 м.
Битрейт : 4540 Кбит/сек
Ширина : 1280 пикселей
Высота : 534 пикселя
Соотношение сторон : 2,40:1
Режим частоты кадров : Постоянный
Частота кадров : 23,976 кадра/сек
Цветовое пространство : YUV
Субдискретизация насыщенности : 4:2:0
Битовая глубина : 8 бит
Тип развёртки : Прогрессивная
Бит/(Пиксели*Кадры) : 0.277
Размер потока : 2,94 Гбайт (80%)
Заголовок : Ya.Plu1y.Na.8ash1.Lainy.2015.L2.BDRip.720p.ELEKTRI4KA.uniongang.tv
Язык : English
Default : Да
Forced : Нет
DURATION : 01:31:31.528000000
NUMBER_OF_FRAMES : 131665
NUMBER_OF_BYTES : 3229440986
_STATISTICS_WRITING_APP : mkvmerge v8.3.0 ("Over the Horizon") 64bit
_STATISTICS_WRITING_DATE_UTC : 2015-10-03 11:48:02
_STATISTICS_TAGS : BPS DURATION NUMBER_OF_FRAMES NUMBER_OF_BYTES
Аудио #1
Идентификатор : 2
Формат : AC-3
Формат/Информация : Audio Coding 3
Расширение режима : CM (complete main)
Параметр Endianness формата : Big
Идентификатор кодека : A_AC3
Продолжительность : 1 ч. 32 м.
Вид битрейта : Постоянный
Битрейт : 384 Кбит/сек
Каналы : 2 канала
Расположение каналов : Front: L R
Частота : 48,0 КГц
Метод сжатия : С потерями
Размер потока : 254 Мбайт (7%)
Заголовок : Ya.Plu1y.Na.8ash1.Lainy.2015.L2.BDRip.720p.ELEKTRI4KA.uniongang.tv
Язык : Russian
Default : Да
Forced : Нет
Аудио #2
Идентификатор : 3
Формат : AC-3
Формат/Информация : Audio Coding 3
Расширение режима : CM (complete main)
Параметр Endianness формата : Big
Идентификатор кодека : A_AC3
Продолжительность : 1 ч. 32 м.
Вид битрейта : Постоянный
Битрейт : 640 Кбит/сек
Каналы : 6 каналов
Расположение каналов : Front: L C R, Side: L R, LFE
Частота : 48,0 КГц
Метод сжатия : С потерями
Размер потока : 424 Мбайт (11%)
Заголовок : Ya.Plu1y.Na.8ash1.Lainy.2015.L2.BDRip.720p.ELEKTRI4KA.uniongang.tv
Язык : English
Default : Нет
Forced : Нет
Меню
00:00:00.000 : en:00:00:00.000
00:06:34.394 : en:00:06:34.394
00:14:42.048 : en:00:14:42.048
00:20:19.218 : en:00:20:19.218
00:28:29.541 : en:00:28:29.541
00:39:15.019 : en:00:39:15.019
00:47:19.045 : en:00:47:19.045
00:58:44.354 : en:00:58:44.354
01:08:09.752 : en:01:08:09.752
01:12:49.532 : en:01:12:49.532
01:18:53.729 : en:01:18:53.729
01:27:29.911 : en:01:27:29.911
Скриншоты:
Яндекс.Метрика
Рейтинг@Mail.ru