2 / Kick-Ass 2 (2013) HDRip [H.264]

 

Создавать темы 20-Дек-2013 03:48

- 2 / Kick-Ass 2 (2013) HDRip
«Вы не можете бороться со своей судьбой»
- Год выпуска: 2013
Производство: США, Великобритания / Universal Pictures, Marv Films, Plan B Entertainment
Жанр: Боевик, Комедия, Криминал
Перевод: Дублированный (iTunes)
Субтитры: Вшитые отключаемые
Язык субтитров: Английский (Full, SDH, SDH-Colored)-Дата мировой премьеры: 14 августа 2013 (Великобритания,Ирландия,Филиппины)
Дата российской премьеры: 5 сентября 2013, «UPI»
Дата выхода DVD релиза: 19 декабря 2013, «Двадцатый Век Фокс СНГ»
Дата выхода Blu-Ray релиза: 19 декабря 2013, «Двадцатый Век Фокс СНГ»-Режиссер: Джефф Уодлоу-Продюсер: Aдам Болинг, Тарквин Пэк, Брэд Питт-Актеры: Аарон Тейлор-Джонсон, Хлоя Грейс Морец, Кристофер Минц-Плассе, Джим Керри, Ольга Куркулина, Моррис Честнат, Клаудия Ли, Эми Анзеловиц, Кларк Дьюк, Август Прю, Роберт Эммс, Клаудия Ли, Гэррет М. Браун ...-Роли дублировали: Антон Эльдаров, Наталья Терешкова, Александр Гаврилин, Владимир Зайцев, Диомид Виноградов, Михаил Тихонов, Александр Головчанский ...-Описание фильма:
В реальной жизни не встретишь супергероя из комиксов, зато в ней есть настоящие герои. Харизматичный и гламурная Убивашка обрели новую команду поддержки во главе с Полковником Америка. Но кроме обычных мафиози, над городом нависает новая угроза — молодой мажор с очень дурным характером и целой армией отмороженных наемников.-
Продолжительность: 01:43:00
Качество видео: HDRip
Видеокодек: MPEG-4 AVC/H.264
Битрейт видео: ~ 2264 Кбит/сек
Размер кадра: 1024 x 426 (2.404) at 23.976 fps : 0.216 Bits/Pixel
Аудио #1: AC3 384 Кбит/сек (6ch), 48,0 КГц, 16 бит [Русский, Дубляж iTunes]
Аудио #2: AC3 384 Кбит/сек (6ch), 48,0 КГц, 16 бит [Английский]
Дополнительно: Сохранены оригинальные чаптеры как на Blu-ray

Знаете ли вы, что...

• Когда Мать-Россия уничтожает полицейские машины, на фоне играет русская народная мелодия «Коробейники», используемая в игре «Тетрис».
• Эван Питерс не смог сыграть роль Тодда Хейнса из-за несогласованности расписаний съемок с сериалом «Американская история ужасов» (2011).
• Статуя ребенка в армейском шлеме с гранатой в руке, находящаяся в логове злодея, является работой британского художника Скуни (Schoony) и называется «Мальчик-солдат».
• Это первый фильм Джеффа Уодлоу, получивший рейтинг «R».
• Джим Керри сам купил реквизит, чтобы выглядеть так же как его персонаж в комиксах.
• Плакаты в комнате Дэйва — «Американский Иисус» и «Превосходный» — это два графических романа, написанные Марком Милларом.
• В комиксах Полковник Звёзды и полосы — это два брата: Полковник Звёзды и Лейтенант Полосы.
• Большинство удачных фраз Джима Керри — результат удачных импровизаций самого актёра.
• Аарон Тейлор-Джонсон набрал 15 фунтов мышечной массы для роли.
• Во время флэшбэка на похоронах можно заметить имя Марка Миллара в верхней части плаката. Марк Миллар является автором комиксов « » (Kick-Ass).
• Джиму Керри в этом фильме отведено всего 7 минут и 45 секунд экранного времени.

Ошибки в фильме

• В сцене, где во время тренировки Минди подстреливает Дэйва, в его куртке видны два пулевых отверстия, хотя стреляли в него всего один раз.
• Когда злодеи находятся на своей базе, у Криса два пистолета на его костюме. Впоследствии это оружие исчезает.
• Когда впервые входит в штаб-квартиру организации «Справедливость навсегда», на полке видна банка арахисового масла. После крупного плана Пипца банка исчезает.
• Когда Дэйв в больнице говорит, что он и есть , он снимает очки левой рукой. В правой руке у него цветы. Секунду спустя, когда он сидит на кровати, очки снова на нем.
• Мать-Россия отрывает дверь автомобиля и использует ее в качестве щита, а затем бросает ее в полицейского, но при этом на ней уже нет никаких пулевых отверстий.
• Когда Мать-Россия разрушает полицейские машины, она ставит газонокосилку на багажник одной, затем въезжает на ней задним ходом в другую машину, и запускает газонокосилку в лобовое стекло. У этой модели газонокосилки в рабочем режиме должна быть зажата управляющая ручка, в противном случае ее двигатель выключится.

MediaInfo:

Уникальный идентификатор                 : 231917444070260203990342816892015598747 (0xAE79ACCDDA5A5F139060BB56712FDC9B)
Полное имя                               : H:\BDRip'ы\  2  Kick-Ass 2  2013  ДБ  BDRip (1080p)\Pipets.2.2013.D.HDRip.h264.2.18GB.NNM-CLUB.GIU.mkv
Формат                                   : Matroska
Версия формата                           : Version 2
Размер файла                             : 2,18 Гбайт
Продолжительность                        : 1 ч. 43 м.
Общий поток                              : 3033 Кбит/сек
Название фильма                          : Pipets.2.2013.D.HDRip.h264.2.18GB.NNM-CLUB.GIU
Дата кодирования                         : UTC 2013-11-30 21:11:55
Программа кодирования                    : mkvmerge v2.9.9 ('Tutu') built on Nov 25 2009 21:13:32
Библиотека кодирования                   : libebml v0.7.9 + libmatroska v0.8.1
Видео
Идентификатор                            : 1
Формат                                   : AVC
Формат/Информация                        : Advanced Video Codec
Профиль формата                          : [url=mailto:[email protected]][email protected][/url]
Параметр CABAC формата                   : Да
Параметр ReFrames формата                : 12 кадров
Идентификатор кодека                     : V_MPEG4/ISO/AVC
Продолжительность                        : 1 ч. 43 м.
Битрейт                                  : 2264 Кбит/сек
Ширина                                   : 1024 пикселя
Высота                                   : 426 пикселей
Соотношение сторон                       : 2,40:1
Режим частоты кадров                     : Постоянный
Частота кадров                           : 23,976 кадра/сек
Цветовое пространство                    : YUV
Субдискретизация насыщенности            : 4:2:0
Битовая глубина                          : 8 бит
Тип развёртки                            : Прогрессивная
Бит/(Пиксели*Кадры)                      : 0.216
Размер потока                            : 1,59 Гбайт (73%)
Заголовок                                : -=Release for NNM-CLUB.RU=-
Библиотека кодирования                   : x264 core 133 r2334 a3ac64b
Настройки программы                      : cabac=1 / ref=12 / deblock=1:-3:-3 / analyse=0x3:0x113 / me=umh / subme=11 / psy=1 / psy_rd=1.00:0.25 / mixed_ref=0 / me_range=32 / chroma_me=1 / trellis=2 / 8x8dct=1 / cqm=0 / deadzone=21,11 / fast_pskip=1 / chroma_qp_offset=-4 / threads=12 / lookahead_threads=2 / sliced_threads=0 / nr=0 / decimate=0 / interlaced=0 / bluray_compat=0 / constrained_intra=0 / bframes=8 / b_pyramid=2 / b_adapt=2 / b_bias=0 / direct=3 / weightb=1 / open_gop=0 / weightp=2 / keyint=240 / keyint_min=23 / scenecut=40 / intra_refresh=0 / rc_lookahead=40 / rc=2pass / mbtree=1 / bitrate=2264 / ratetol=1.0 / qcomp=0.70 / qpmin=0 / qpmax=69 / qpstep=4 / cplxblur=20.0 / qblur=0.5 / vbv_maxrate=62500 / vbv_bufsize=78125 / nal_hrd=none / ip_ratio=1.40 / aq=1:1.00
Язык                                     : English
Default                                  : Нет
Forced                                   : Нет
Аудио #1
Идентификатор                            : 2
Формат                                   : AC-3
Формат/Информация                        : Audio Coding 3
Расширение режима                        : CM (complete main)
Параметр Endianness формата              : Big
Идентификатор кодека                     : A_AC3
Продолжительность                        : 1 ч. 43 м.
Вид битрейта                             : Постоянный
Битрейт                                  : 384 Кбит/сек
Каналы                                   : 6 каналов
Расположение каналов                     : Front: L C R, Side: L R, LFE
Частота                                  : 48,0 КГц
Битовая глубина                          : 16 бит
Метод сжатия                             : С потерями
Размер потока                            : 283 Мбайт (13%)
Заголовок                                : AC3.384Kbps (6ch) Russian (iTunes)
Язык                                     : Russian
Default                                  : Да
Forced                                   : Нет
Аудио #2
Идентификатор                            : 3
Формат                                   : AC-3
Формат/Информация                        : Audio Coding 3
Расширение режима                        : CM (complete main)
Параметр Endianness формата              : Big
Идентификатор кодека                     : A_AC3
Продолжительность                        : 1 ч. 43 м.
Вид битрейта                             : Постоянный
Битрейт                                  : 384 Кбит/сек
Каналы                                   : 6 каналов
Расположение каналов                     : Front: L C R, Side: L R, LFE
Частота                                  : 48,0 КГц
Битовая глубина                          : 16 бит
Метод сжатия                             : С потерями
Размер потока                            : 283 Мбайт (13%)
Заголовок                                : AC3.384Kbps (6ch) English
Язык                                     : English
Default                                  : Нет
Forced                                   : Нет
Текст #1
Идентификатор                            : 4
Формат                                   : UTF-8
Идентификатор кодека                     : S_TEXT/UTF8
Идентификатор кодека/Информация          : UTF-8 Plain Text
Заголовок                                : English (Full)
Язык                                     : English
Default                                  : Нет
Forced                                   : Нет
Текст #2
Идентификатор                            : 5
Формат                                   : UTF-8
Идентификатор кодека                     : S_TEXT/UTF8
Идентификатор кодека/Информация          : UTF-8 Plain Text
Заголовок                                : English (SDH)
Язык                                     : English
Default                                  : Нет
Forced                                   : Нет
Текст #3
Идентификатор                            : 6
Формат                                   : UTF-8
Идентификатор кодека                     : S_TEXT/UTF8
Идентификатор кодека/Информация          : UTF-8 Plain Text
Заголовок                                : English (SDH-Colored)
Язык                                     : English
Default                                  : Нет
Forced                                   : Нет
Меню
00:00:00.000                             : en:00:00:00.000
00:05:58.191                             : en:00:05:58.191
00:10:37.929                             : en:00:10:37.929
00:14:08.306                             : en:00:14:08.306
00:19:11.108                             : en:00:19:11.108
00:23:11.348                             : en:00:23:11.348
00:30:20.444                             : en:00:30:20.444
00:35:25.498                             : en:00:35:25.498
00:40:13.786                             : en:00:40:13.786
00:45:37.193                             : en:00:45:37.193
00:52:35.778                             : en:00:52:35.778
00:58:02.396                             : en:00:58:02.396
01:00:37.843                             : en:01:00:37.843
01:05:36.099                             : en:01:05:36.099
01:09:57.944                             : en:01:09:57.944
01:15:56.343                             : en:01:15:56.343
01:21:05.486                             : en:01:21:05.486
01:23:32.549                             : en:01:23:32.549
01:33:05.538                             : en:01:33:05.538
01:36:38.251                             : en:01:36:38.251

x264 iNFO

x264 [info]: profile Main, level 4.1
x264 [info]: frame I:1743 Avg QP:16.99 size: 82476
x264 [info]: frame P:42833 Avg QP:20.87 size: 21966
x264 [info]: frame B:103599 Avg QP:23.09 size: 6407
x264 [info]: consecutive B-frames: 6.2% 6.7% 12.8% 43.8% 10.7% 16.2% 1.7% 1.4% 0.5%
Скриншоты:
-http://www.youtube.com/watch?feature=player_embedded&v=_yuNADXRaVo-
--Время раздачи: 24/7 (до 10 скачавших)
Яндекс.Метрика
Рейтинг@Mail.ru