Discovery: Беар Гриллс: по стопам выживших / Bear Grylls: Escape From Hell [01-06 из 06][ (2013),Документальный, HDTVRip] от R.G.RealMT | P1

 

Создавать темы 20-Дек-2013 17:01

Год выпуска: 2013
Страна: США
Жанр: Документальный
Продолжительность: 6 х ~43 мин.
Перевод: Профессиональный (одноголосый закадровый) [Discovery Channel]
Описание: Всемирно известный искатель приключений и специалист по выживанию Беар Гриллс рассказывает реальные истории выживания обычных людей, оказавшихся в экстремальной ситуации.
Качество: HDTVRip
Формат:AVI
Видео кодек: XviD
Аудио кодек: AC-3
Видео: 16:9, 2000 Кбит/сек, 720x400, 25,000 кадров/сек
Аудио: AC-3, 2 канала, 192 Кбит/сек, 48,0 КГц

Список эпизодов:

01. Джунгли / Jungle
Беар находится в одной из стран Центральной Америки. Он приехал сюда, потому что 3 группы людей смогли выжить в этих суровых условиях не смотря ни на что. Он находится в сердце Гватемальских джунглей - здесь жарко, сыро, кругом колючки. На каждом шагу человека подстерегает опасность, ни на минуту нельзя расслабится.
02. Снег / Snow
Береговой хребет, Канада. За этой красотой скрывается одно из самых враждебных человеку мест на земле. В таких условиях трое необыкновенных мужчин вели битву с природой за выживание. Один неверный шаг, и у тебя серьезные неприятности. Лучший способ выжить - не расслабляться и не терять концентрацию.
03. Пустыня / Desert
Беар находится в пекле пустыни Сахара и идет по следах трех удивительных человек обхитривших смерть. Они не понимали на сколько это опасно, и сами того не зная опускались прямо на дно ада. Они чувствовали себя беспомощными.
04. Каньоны / Canyons
В этот раз Беар пройдет через крутые скалы Северной Африки и яростные речные стремнины Европы, чтобы испытать то, через что прошли эти люди, оказавшиеся в невероятном природном ландшафте.
05. Горы / Mountains
В этот раз Беар в горах и лесах северной Италии. Он воспроизведет опыт трех молодых людей, обманувших смерть. Из крутых супер-мэнов они превратились в детей. Горы внушают благоговение и страх в ровном мире - и по праву. Их границы - непроходимый лес, где можно легко заблудится. На высоких пиках один неверный шаг может стоить жизни.
06. Основные принципы выживания
В этой серии Беар испытал на себе невероятные случаи выживания со всего мира. 16 обычных человек прошли через ад и выбрались живыми, не смотря ни на что. Беар покажет, как их опыт может помочь Вам выжить во враждебной местности. И продемонстрирует технику выживания в дикой природе, ее основные принципы.

MediaInfo

Общее
Полное имя : D:Bear Grylls. Escape From Hell (2013) [HDTVRip]Po.stopam.vizhivshih.(1.serija).2013.[R.G.RealMT].avi
Формат : AVI
Формат/Информация : Audio Video Interleave
Размер файла : 686 Мбайт
Продолжительность : 43 м.
Общий поток : 2201 Кбит/сек
Программа кодирования : VirtualDubMod 1.5.10.3 | www.virtualdub-fr.org || (build 2550/release)
Библиотека кодирования : VirtualDubMod build 2550/release
Видео
Идентификатор : 0
Формат : MPEG-4 Visual
Профиль формата : Advanced [email protected]
Параметр BVOP формата : 2
Параметр QPel формата : Нет
Параметр GMC формата : Без точки перехода
Параметр матрицы формата : Default (H.263)
Режим смешивания : Сжатый битовый поток
Идентификатор кодека : XVID
Идентификатор кодека/Подсказка : XviD
Продолжительность : 43 м.
Битрейт : 2000 Кбит/сек
Ширина : 720 пикселей
Высота : 400 пикселей
Соотношение сторон : 16:9
Частота кадров : 25,000 кадров/сек
Цветовое пространство : YUV
Субдискретизация насыщенности : 4:2:0
Битовая глубина : 8 бит
Тип развёртки : Прогрессивная
Метод сжатия : С потерями
Бит/(Пиксели*Кадры) : 0.278
Размер потока : 623 Мбайт (91%)
Библиотека кодирования : XviD 1.2.1 (UTC 2008-12-04)
Аудио
Идентификатор : 1
Формат : AC-3
Формат/Информация : Audio Coding 3
Расширение режима : CM (complete main)
Параметр Endianness формата : Big
Идентификатор кодека : 2000
Продолжительность : 43 м.
Вид битрейта : Постоянный
Битрейт : 192 Кбит/сек
Каналы : 2 канала
Расположение каналов : Front: L R
Частота : 48,0 КГц
Битовая глубина : 16 бит
Метод сжатия : С потерями
Размер потока : 59,8 Мбайт (9%)
Выравнивание : Разделение по промежуткам
Продолжительность промежутка : 40 мс. (1,00 видеокадр)
Время предзагрузки промежутка : 500 мс.

Скриншоты

Яндекс.Метрика
Рейтинг@Mail.ru