Viasat History: Ватикан и Третий Рейх / The Vatican and the Third Reich (Rufo Pajares) [2014 г., Документальный, история, SATRip]

 

Создавать темы 29-Ноя-2015 00:06

-Viasat History: Ватикан и Третий Рейх / The Vatican and the Third Reich- Год выпуска: 2014
Страна: Испания, Vinil Producciones S.L. and Pacific Media S.L.
Жанр: Документальный, история
Продолжительность: 00:52:36
Перевод: Профессиональный (одноголосый), переведено и озвучено на студии "SDI Media", перевод перевод Светланы Дойтш, текст читает Михаил Карасиков
Режиссер: Rufo Pajares
В ролях: Juan G. Bedoya, Jesús de las Heras, Peter Gumpel, Bernard Ardura-Описание:-Избрание кардинала Пачелли на пост папы римского было неоспоримо в 1939 году. Однако в 1963 году, через несколько лет после его смерти, его репутация была поставлена под сомнение, когда немецкий драматург Рольф Хокхут опубликовал пьесу «Представитель», где папа изображается трусливо молчащим перед лицом массового уничтожения евреев. Программа рассказывает об отношениях между Ватиканом и Германией во время Второй мировой войны, а также о том, почему папа римский Пий XII бездействовал во время Холокоста.-Качество: SATRip
Контейнер: AVI
Видео кодек: XviD
Аудио кодек: AC3
Видео: 704x400 25fps 1800 kbps
Аудио: AC3 2ch, 48kHz, 192 kbps-

MediaInfo

Format : AVI
Format/Info : Audio Video Interleave
File size : 750 MiB
Duration : 52mn 35s
Overall bit rate : 1 993 Kbps
Writing application : TMPGEnc Video Mastering Works 5 Version. 5.0.6.38
Writing library : TMPGEnc Video Mastering Works 5 Version. 5.0.6.38
Video
ID : 0
Format : MPEG-4 Visual
Format profile : Advanced [email protected]
Format settings, BVOP : 2
Format settings, QPel : No
Format settings, GMC : No warppoints
Format settings, Matrix : Default (H.263)
Muxing mode : Packed bitstream
Codec ID : XVID
Codec ID/Hint : XviD
Duration : 52mn 35s
Bit rate : 1 793 Kbps
Width : 704 pixels
Height : 400 pixels
Display aspect ratio : 16:9
Frame rate : 25.000 fps
Color space : YUV
Chroma subsampling : 4:2:0
Bit depth : 8 bits
Scan type : Progressive
Compression mode : Lossy
Bits/(Pixel*Frame) : 0.255
Stream size : 675 MiB (90%)
Writing library : XviD 73
Audio
ID : 1
Format : AC-3
Format/Info : Audio Coding 3
Mode extension : CM (complete main)
Format settings, Endianness : Big
Codec ID : 2000
Duration : 52mn 35s
Bit rate mode : Constant
Bit rate : 192 Kbps
Channel(s) : 2 channels
Channel positions : Front: L R
Sampling rate : 48.0 KHz
Bit depth : 16 bits
Compression mode : Lossy
Stream size : 72.2 MiB (10%)
Alignment : Aligned on interleaves
Interleave, duration : 240 ms (6.00 video frames)
Interleave, preload duration : 224 ms
-Скриншоты--Благодарность за предоставленный рип: -Время раздачи: 24/7 (круглосуточно)-
Яндекс.Метрика
Рейтинг@Mail.ru