(Punk Rock | Fusion) [CD] Сектор Газа - Лучшие песни [2CD] - 2014, FLAC (image+.cue), lossless

 

Создавать темы 07-Дек-2015 17:01

Сектор Газа / Лучшие песни [2CD]
Жанр: Punk Rock | Fusion
Носитель: CD
Страна-производитель диска (релиза): Россия
Год издания: 2014
Издатель (лейбл): Zebra Studio
Номер по каталогу: -----
Страна исполнителя (группы): СССР
Аудиокодек: FLAC (*.flac)
Тип рипа: image+.cue
Битрейт аудио: lossless
Продолжительность: 02:32:52
Источник (релизер): Рипы с личных дисков
Наличие сканов в содержимом раздачи: Да (600 DPI)
Треклист:

CD 1 - 01:18:04

01. Колхозный панк
02. Туман
03. Свидание
04. Новогодняя песня
05. Я устал
06. Взял вину на себя
07. Бомж
08. Мент
09. Сожжённая ведьма
10. Моя смерть
11. Дурак
12. Утопленник
13. Восставший из ада
14. Ночь перед Рождеством
15. Ява
16. Рога
17. Тёща
18. Щи
19. Свадьба
20. Эстрадная песня
21. Демобилизация

CD 2 - 01:14:49

01. 30 лет
02. Лирика
03. Носки
04. Гуляй, мужик
05. Русский мат
06. Песенка
07. Попец
08. Местные
09. Сельский кайф
10. Частушки
11. Пасха
12. Вечером на лавочке
13. Укус вампира
14. ГАИ [Водительская-подхалимская]
15. Вальпургиева ночь
16. Ария Кощея Бессмертного
17. Возле дома твоего
18. Казачья
19. План
20. Life
21. Пора домой

Лог создания рипа

CD 1

Exact Audio Copy V1.0 beta 3 from 29. August 2011
Отчёт EAC об извлечении, выполненном 12. апреля 2015, 5:37
Сектор Газа / Лучшие песни [CD 1]
Дисковод: Optiarc DVD RW AD-5200S Adapter: 3 ID: 0
Режим чтения : Достоверность
Использование точного потока : Да
Отключение кэша аудио : Да
Использование указателей C2 : Нет
Коррекция смещения при чтении : 48
Способность читать области Lead-in и Lead-out : Нет
Заполнение пропущенных сэмплов тишиной : Да
Удаление блоков с тишиной в начале и конце : Нет
При вычислениях CRC использовались нулевые сэмплы : Да
Интерфейс : Установленный внешний ASPI-интерфейс
Выходной формат : Пользовательский кодировщик
Выбранный битрейт : 768 kBit/s
Качество : Высокий
Добавление ID3-тега : Нет
Утилита сжатия : C:\Program Files\Exact Audio Copy\FLAC\FLAC.EXE
Дополнительные параметры : -6 -V -T "ARTIST=%artist%" -T "TITLE=%title%" -T "ALBUM=%albumtitle%" -T "DATE=%year%" -T "TRACKNUMBER=%tracknr%" -T "GENRE=%genre%" -T "COMMENT=%comment%" -T "BAND=%albuminterpret%" -T "ALBUMARTIST=%albuminterpret%" -T "COMPOSER=%composer%" %haslyrics%--tag-from-file=LYRICS="%lyricsfile%"%haslyrics% -T "DISCNUMBER=%cdnumber%" -T "TOTALDISCS=%totalcds%" -T "TOTALTRACKS=%numtracks%" %hascover%--picture="%coverfile%"%hascover% %source% -o %dest%
TOC извлечённого CD
Трек | Старт | Длительность | Начальный сектор | Конечный сектор
---------------------------------------------------------------------
1 | 0:00.00 | 3:34.34 | 0 | 16083
2 | 3:34.34 | 3:45.25 | 16084 | 32983
3 | 7:19.59 | 4:02.47 | 32984 | 51180
4 | 11:22.31 | 2:41.40 | 51181 | 63295
5 | 14:03.71 | 2:30.10 | 63296 | 74555
6 | 16:34.06 | 3:14.01 | 74556 | 89106
7 | 19:48.07 | 3:32.55 | 89107 | 105061
8 | 23:20.62 | 2:23.58 | 105062 | 115844
9 | 25:44.45 | 5:37.32 | 115845 | 141151
10 | 31:22.02 | 3:53.58 | 141152 | 158684
11 | 35:15.60 | 3:20.67 | 158685 | 173751
12 | 38:36.52 | 4:45.52 | 173752 | 195178
13 | 43:22.29 | 4:38.45 | 195179 | 216073
14 | 48:00.74 | 4:28.45 | 216074 | 236218
15 | 52:29.44 | 4:36.18 | 236219 | 256936
16 | 57:05.62 | 3:12.71 | 256937 | 271407
17 | 60:18.58 | 3:45.59 | 271408 | 288341
18 | 64:04.42 | 3:47.10 | 288342 | 305376
19 | 67:51.52 | 4:22.07 | 305377 | 325033
20 | 72:13.59 | 1:57.03 | 325034 | 333811
21 | 74:10.62 | 3:52.39 | 333812 | 351250
Характеристики диапазона извлечения и сообщения об ошибках
Выбранный диапазон
Имя файла F:\LOSSLESS\Scans\Сектор Газа - Лучшие песни [CD 1].wav
Пиковый уровень 89.1 %
Скорость извлечения 4.6 X
Качество диапазона 100.0 %
CRC теста E15B6799
CRC копии E15B6799
Копирование... OK
Ошибок не произошло
AccurateRip: сводка
Трек 1 отсутствует в базе данных
Трек 2 отсутствует в базе данных
Трек 3 отсутствует в базе данных
Трек 4 отсутствует в базе данных
Трек 5 отсутствует в базе данных
Трек 6 отсутствует в базе данных
Трек 7 отсутствует в базе данных
Трек 8 отсутствует в базе данных
Трек 9 отсутствует в базе данных
Трек 10 отсутствует в базе данных
Трек 11 отсутствует в базе данных
Трек 12 отсутствует в базе данных
Трек 13 отсутствует в базе данных
Трек 14 отсутствует в базе данных
Трек 15 отсутствует в базе данных
Трек 16 отсутствует в базе данных
Трек 17 отсутствует в базе данных
Трек 18 отсутствует в базе данных
Трек 19 отсутствует в базе данных
Трек 20 отсутствует в базе данных
Трек 21 отсутствует в базе данных
Ни одного трека нет в базе AccurateRip
Конец отчёта
==== Контрольная сумма отчёта 9968B95FE7E20458E88F47A68A6B3D0B9B57EA77086EFEC711862DA26C06FC54 ====

CD 2

Exact Audio Copy V1.0 beta 3 from 29. August 2011
Отчёт EAC об извлечении, выполненном 12. апреля 2015, 6:21
Сектор Газа / Лучшие песни [CD 2]
Дисковод: Optiarc DVD RW AD-5200S Adapter: 3 ID: 0
Режим чтения : Достоверность
Использование точного потока : Да
Отключение кэша аудио : Да
Использование указателей C2 : Нет
Коррекция смещения при чтении : 48
Способность читать области Lead-in и Lead-out : Нет
Заполнение пропущенных сэмплов тишиной : Да
Удаление блоков с тишиной в начале и конце : Нет
При вычислениях CRC использовались нулевые сэмплы : Да
Интерфейс : Установленный внешний ASPI-интерфейс
Выходной формат : Пользовательский кодировщик
Выбранный битрейт : 768 kBit/s
Качество : Высокий
Добавление ID3-тега : Нет
Утилита сжатия : C:\Program Files\Exact Audio Copy\FLAC\FLAC.EXE
Дополнительные параметры : -6 -V -T "ARTIST=%artist%" -T "TITLE=%title%" -T "ALBUM=%albumtitle%" -T "DATE=%year%" -T "TRACKNUMBER=%tracknr%" -T "GENRE=%genre%" -T "COMMENT=%comment%" -T "BAND=%albuminterpret%" -T "ALBUMARTIST=%albuminterpret%" -T "COMPOSER=%composer%" %haslyrics%--tag-from-file=LYRICS="%lyricsfile%"%haslyrics% -T "DISCNUMBER=%cdnumber%" -T "TOTALDISCS=%totalcds%" -T "TOTALTRACKS=%numtracks%" %hascover%--picture="%coverfile%"%hascover% %source% -o %dest%
TOC извлечённого CD
Трек | Старт | Длительность | Начальный сектор | Конечный сектор
---------------------------------------------------------------------
1 | 0:00.00 | 4:11.52 | 0 | 18876
2 | 4:11.52 | 4:18.58 | 18877 | 38284
3 | 8:30.35 | 2:43.64 | 38285 | 50573
4 | 11:14.24 | 3:03.25 | 50574 | 64323
5 | 14:17.49 | 2:23.16 | 64324 | 75064
6 | 16:40.65 | 3:19.02 | 75065 | 89991
7 | 19:59.67 | 2:24.25 | 89992 | 100816
8 | 22:24.17 | 3:01.57 | 100817 | 114448
9 | 25:25.74 | 2:49.03 | 114449 | 127126
10 | 28:15.02 | 5:30.70 | 127127 | 151946
11 | 33:45.72 | 5:33.65 | 151947 | 176986
12 | 39:19.62 | 4:02.52 | 176987 | 195188
13 | 43:22.39 | 4:46.67 | 195189 | 216705
14 | 48:09.31 | 4:09.22 | 216706 | 235402
15 | 52:18.53 | 3:54.58 | 235403 | 253010
16 | 56:13.36 | 2:09.32 | 253011 | 262717
17 | 58:22.68 | 3:01.21 | 262718 | 276313
18 | 61:24.14 | 2:46.05 | 276314 | 288768
19 | 64:10.19 | 3:17.38 | 288769 | 303581
20 | 67:27.57 | 3:25.65 | 303582 | 319021
21 | 70:53.47 | 3:54.42 | 319022 | 336613
Характеристики диапазона извлечения и сообщения об ошибках
Выбранный диапазон
Имя файла F:\LOSSLESS\Scans\Сектор Газа - Лучшие песни [CD 2].wav
Пиковый уровень 89.1 %
Скорость извлечения 4.5 X
Качество диапазона 99.9 %
CRC теста 1FDE7FEA
CRC копии 1FDE7FEA
Копирование... OK
Ошибок не произошло
AccurateRip: сводка
Трек 1 отсутствует в базе данных
Трек 2 отсутствует в базе данных
Трек 3 отсутствует в базе данных
Трек 4 отсутствует в базе данных
Трек 5 отсутствует в базе данных
Трек 6 отсутствует в базе данных
Трек 7 отсутствует в базе данных
Трек 8 отсутствует в базе данных
Трек 9 отсутствует в базе данных
Трек 10 отсутствует в базе данных
Трек 11 отсутствует в базе данных
Трек 12 отсутствует в базе данных
Трек 13 отсутствует в базе данных
Трек 14 отсутствует в базе данных
Трек 15 отсутствует в базе данных
Трек 16 отсутствует в базе данных
Трек 17 отсутствует в базе данных
Трек 18 отсутствует в базе данных
Трек 19 отсутствует в базе данных
Трек 20 отсутствует в базе данных
Трек 21 отсутствует в базе данных
Ни одного трека нет в базе AccurateRip
Конец отчёта
==== Контрольная сумма отчёта 42BCC5D79C48ABC3688E69558FC84501B56FB9A65D60A7DA15D4585BA71750C3 ====

Содержание индексной карты (.CUE)

CD 1

REM GENRE "Punk Rock | Fusion"
REM DATE 2014
REM DISCID 26124B15
REM COMMENT "ExactAudioCopy v1.0b3"
PERFORMER "Сектор Газа"
TITLE "Лучшие песни [CD 1]"
FILE "Сектор Газа - Лучшие песни [CD 1].flac" WAVE
TRACK 01 AUDIO
TITLE "Колхозный панк"
PERFORMER "Сектор Газа"
INDEX 01 00:00:00
TRACK 02 AUDIO
TITLE "Туман"
PERFORMER "Сектор Газа"
INDEX 01 03:34:34
TRACK 03 AUDIO
TITLE "Свидание"
PERFORMER "Сектор Газа"
INDEX 01 07:19:59
TRACK 04 AUDIO
TITLE "Новогодняя песня"
PERFORMER "Сектор Газа"
INDEX 01 11:22:31
TRACK 05 AUDIO
TITLE "Я устал"
PERFORMER "Сектор Газа"
INDEX 01 14:03:71
TRACK 06 AUDIO
TITLE "Взял вину на себя"
PERFORMER "Сектор Газа"
INDEX 01 16:34:06
TRACK 07 AUDIO
TITLE "Бомж"
PERFORMER "Сектор Газа"
INDEX 01 19:48:07
TRACK 08 AUDIO
TITLE "Мент"
PERFORMER "Сектор Газа"
INDEX 01 23:20:62
TRACK 09 AUDIO
TITLE "Сожжённая ведьма"
PERFORMER "Сектор Газа"
INDEX 01 25:44:45
TRACK 10 AUDIO
TITLE "Моя смерть"
PERFORMER "Сектор Газа"
INDEX 01 31:22:02
TRACK 11 AUDIO
TITLE "Дурак"
PERFORMER "Сектор Газа"
INDEX 01 35:15:60
TRACK 12 AUDIO
TITLE "Утопленник"
PERFORMER "Сектор Газа"
INDEX 01 38:36:52
TRACK 13 AUDIO
TITLE "Восставший из ада"
PERFORMER "Сектор Газа"
INDEX 01 43:22:29
TRACK 14 AUDIO
TITLE "Ночь перед Рождеством"
PERFORMER "Сектор Газа"
INDEX 01 48:00:74
TRACK 15 AUDIO
TITLE "Ява"
PERFORMER "Сектор Газа"
INDEX 01 52:29:44
TRACK 16 AUDIO
TITLE "Рога"
PERFORMER "Сектор Газа"
INDEX 01 57:05:62
TRACK 17 AUDIO
TITLE "Тёща"
PERFORMER "Сектор Газа"
INDEX 01 60:18:58
TRACK 18 AUDIO
TITLE "Щи"
PERFORMER "Сектор Газа"
INDEX 01 64:04:42
TRACK 19 AUDIO
TITLE "Свадьба"
PERFORMER "Сектор Газа"
INDEX 01 67:51:52
TRACK 20 AUDIO
TITLE "Эстрадная песня"
PERFORMER "Сектор Газа"
INDEX 01 72:13:59
TRACK 21 AUDIO
TITLE "Демобилизация"
PERFORMER "Сектор Газа"
INDEX 01 74:10:62

CD 2

REM GENRE "Punk Rock | Fusion"
REM DATE 2014
REM DISCID 20118815
REM COMMENT "ExactAudioCopy v1.0b3"
PERFORMER "Сектор Газа"
TITLE "Лучшие песни [CD 2]"
FILE "Сектор Газа - Лучшие песни [CD 2].flac" WAVE
TRACK 01 AUDIO
TITLE "30 лет"
PERFORMER "Сектор Газа"
INDEX 01 00:00:00
TRACK 02 AUDIO
TITLE "Лирика"
PERFORMER "Сектор Газа"
INDEX 01 04:11:52
TRACK 03 AUDIO
TITLE "Носки"
PERFORMER "Сектор Газа"
INDEX 01 08:30:35
TRACK 04 AUDIO
TITLE "Гуляй, мужик"
PERFORMER "Сектор Газа"
INDEX 01 11:14:24
TRACK 05 AUDIO
TITLE "Русский мат"
PERFORMER "Сектор Газа"
INDEX 01 14:17:49
TRACK 06 AUDIO
TITLE "Песенка"
PERFORMER "Сектор Газа"
INDEX 01 16:40:65
TRACK 07 AUDIO
TITLE "Попец"
PERFORMER "Сектор Газа"
INDEX 01 19:59:67
TRACK 08 AUDIO
TITLE "Местные"
PERFORMER "Сектор Газа"
INDEX 01 22:24:17
TRACK 09 AUDIO
TITLE "Сельский кайф"
PERFORMER "Сектор Газа"
INDEX 01 25:25:74
TRACK 10 AUDIO
TITLE "Частушки"
PERFORMER "Сектор Газа"
INDEX 01 28:15:02
TRACK 11 AUDIO
TITLE "Пасха"
PERFORMER "Сектор Газа"
INDEX 01 33:45:72
TRACK 12 AUDIO
TITLE "Вечером на лавочке"
PERFORMER "Сектор Газа"
INDEX 01 39:19:62
TRACK 13 AUDIO
TITLE "Укус вампира"
PERFORMER "Сектор Газа"
INDEX 01 43:22:39
TRACK 14 AUDIO
TITLE "ГАИ [Водительская-подхалимская]"
PERFORMER "Сектор Газа"
INDEX 01 48:09:31
TRACK 15 AUDIO
TITLE "Вальпургиева ночь"
PERFORMER "Сектор Газа"
INDEX 01 52:18:53
TRACK 16 AUDIO
TITLE "Ария Кощея Бессмертного"
PERFORMER "Сектор Газа"
INDEX 01 56:13:36
TRACK 17 AUDIO
TITLE "Возле дома твоего"
PERFORMER "Сектор Газа"
INDEX 01 58:22:68
TRACK 18 AUDIO
TITLE "Казачья"
PERFORMER "Сектор Газа"
INDEX 01 61:24:14
TRACK 19 AUDIO
TITLE "План"
PERFORMER "Сектор Газа"
INDEX 01 64:10:19
TRACK 20 AUDIO
TITLE "Life"
PERFORMER "Сектор Газа"
INDEX 01 67:27:57
TRACK 21 AUDIO
TITLE "Пора домой"
PERFORMER "Сектор Газа"
INDEX 01 70:53:47
Яндекс.Метрика
Рейтинг@Mail.ru