В изгнании / Outcast (Ник Пауэлл / Nick Powell) [2014, боевик, приключения, BDRip-AVC] MVO [Лицензия]

 

Создавать темы 24-Дек-2015 18:18

В изгнании
Outcast
«Legends are born in battle»

Страна: Китай, Канада, Франция
Жанр: боевик, приключения
Год выпуска: 2014
Продолжительность: 01:38:47
Перевод: Профессиональный (многоголосый, закадровый) [Лицензия]
Cубтитры: нет
Оригинальная аудиодорожка: нет
Режиссер: Ник Пауэлл / Nick Powell
В ролях: Хейден Кристенсен, Николас Кейдж, Лю Ифэй, Энди Он, Александр Байли, Wang Bozhao, Kahina Carina, Саймон Чин, Фернандо Чиен, Пол Филип Кларк, Аноджа Диас Болт, Джавед Эль Берни
Описание:
Действие будет происходить в Китае в десятом веке, и в центре истории - воин, который, чтобы вернуть доверие, вызывается спасти принцессу.

Автор рипа: Stalker oK
Сэмпл
Качество видео: BDRip-AVC [kinozal / Blu-ray Disc / 1080p]
Формат видео: MKV
Видео кодек: AVC
Аудио кодек: AC3
Видео: 1664 Кбит/сек, 1038x436 (2.35:1), 23,976 кадр/сек, AVC
Аудио: русский, 448 Кбит/сек, 48 КГц, 16 бит, 5.1, AC3
Навигация по главам: есть

Рейтинг

MediaInfo

General
Unique ID                        : 173783161578798792013025639643414609279 (0x82BD6B627BC8919BB123E25EDAF93D7F)
Complete name                    : M:\Rips\Outcast\Outcast.2014.BDRip-AVC.MVO.1.45Gb.stalkerok.new-team.mkv
Format                           : Matroska
File size                        : 1.45 GiB
Duration                         : 1h 38mn
Overall bit rate                 : 2 108 Kbps
Movie name                       : Outcast (2014) (New-Team) (Rip by Stalker oK)
Encoded date                     : UTC 2015-12-23 15:48:25
Writing application              : mkvmerge v8.6.1 ('Flying') 64bit
Writing library                  : libebml v1.3.3 + libmatroska v1.4.4
Video
ID                               : 1
Format                           : AVC
Format/Info                      : Advanced Video Codec
Format profile                   : [email protected]
Format settings, CABAC           : Yes
Format settings, ReFrames        : 14 frames
Codec ID                         : V_MPEG4/ISO/AVC
Duration                         : 1h 38mn
Bit rate                         : 1 664 Kbps
Width                            : 1 038 pixels
Height                           : 436 pixels
Display aspect ratio             : 2.35:1
Frame rate                       : 23.976 fps
Color space                      : YUV
Chroma subsampling               : 4:2:0
Bit depth                        : 8 bits
Scan type                        : Progressive
Bits/(Pixel*Frame)               : 0.153
Stream size                      : 1.12 GiB (77%)
Title                            : Outcast (2014) (New-Team) (Rip by Stalker oK)
Writing library                  : x264 core 148 r2638kMod 7599210
Encoding settings                : cabac=1 / ref=14 / deblock=1:-3:-3 / analyse=0x3:0x133 / me=umh / subme=11 / psy=1 / fade_compensate=0.00 / psy_rd=1.00:0.10 / mixed_ref=1 / me_range=48 / chroma_me=1 / trellis=2 / 8x8dct=1 / cqm=0 / deadzone=21,11 / fast_pskip=0 / chroma_qp_offset=-3 / threads=12 / lookahead_threads=3 / sliced_threads=0 / nr=0 / decimate=0 / interlaced=0 / bluray_compat=0 / constrained_intra=0 / fgo=0 / bframes=15 / b_pyramid=2 / b_adapt=2 / b_bias=0 / direct=3 / weightb=1 / open_gop=0 / weightp=2 / keyint=240 / keyint_min=23 / scenecut=40 / intra_refresh=0 / rc_lookahead=60 / rc=2pass / mbtree=0 / bitrate=1664 / ratetol=1.0 / qcomp=0.70 / qpmin=0 / qpmax=69 / qpstep=4 / cplxblur=20.0 / qblur=0.5 / vbv_maxrate=50000 / vbv_bufsize=62500 / nal_hrd=none / filler=0 / ip_ratio=1.40 / pb_ratio=1.30 / aq=3:0.90
Audio
ID                               : 2
Format                           : AC-3
Format/Info                      : Audio Coding 3
Mode extension                   : CM (complete main)
Codec ID                         : A_AC3
Duration                         : 1h 38mn
Bit rate mode                    : Constant
Bit rate                         : 448 Kbps
Channel(s)                       : 6 channels
Channel positions                : Front: L C R, Side: L R, LFE
Sampling rate                    : 48.0 KHz
Bit depth                        : 16 bits
Compression mode                 : Lossy
Stream size                      : 317 MiB (21%)
Language                         : Russian
Menu
00:00:00.000                     : en:Chapter 1
00:09:00.163                     : en:Chapter 2
00:18:38.407                     : en:Chapter 3
00:28:21.156                     : en:Chapter 4
00:36:43.784                     : en:Chapter 5
00:43:45.496                     : en:Chapter 6
00:55:36.166                     : en:Chapter 7
01:03:19.085                     : en:Chapter 8
01:10:21.966                     : en:Chapter 9
01:21:26.213                     : en:Chapter 10
01:31:46.626                     : en:Chapter 11

Скриншоты:

Яндекс.Метрика
Рейтинг@Mail.ru