В пустыне смерти / Into the Badlands (Сезон 1, Серия 1-6 из 6) (Дэвид Добкин ) [2015 , Боевик, драма, приключения, экранизация , WEB-DLRip 1080p ] [NewStudio , OMSKBIRD , AMC , Ideafilm , BaibaKo] + [Subs Eng]

 

Создавать темы 26-Дек-2015 18:20

--В пустыне смерти / Into the Badlands Сезон 1, Серия 1-6 из 6 -- --Год выпуска: 2015
Выпущено: США ,AMC
Жанр: Боевик, драма, приключения, экранизация
Продолжительность: 00:43:00
Сезон:1
Серия: 1-6
Количество серий в сезоне: 6
Озвучка 1: Профессиональный многоголосый - NewStudio
Озвучка 2: Профессиональный многоголосый - OMSKBIRD
Озвучка 3: Профессиональный многоголосый - AMC
Озвучка 4: Профессиональный многоголосый - Ideafilm
Озвучка 5: Профессиональный многоголосый - BaibaKo
Озвучка 6: Профессиональный многоголосый - Английский - Оригинал
Субтитры: : Английские-- --Режиссер: Дэвид Добкин / David Dobkin--В ролях: Эмили Бичем, Сара Болгер, Орла Брэйди, Мартон Чокаш, Элли Иоаннидес, Арамис Найт, Мадлен Манток, Майкл Сил, Оливер Старк, Дэниэл Ву и др.-- Приключенческий боевик о двух друзьях. В пустыне смерти, какие испытания предстоит пройти главным героям на пути просвещения. Ради обретения высшей мудрости мастер боевых искусств Санни и его юный напарник решают пройти через неизведанные земли. Они знают, что там их будут встречать враждебно, но ради высшей цели главные герои готовы вынести всё. В основу сюжета сериала был положен китайский роман под названием «Путешествие на Запад». Во время путешествия Санни покажет в полной мере своё мастерство, а его юный друг сможет многому научиться, и владению собственным телом, и контролю над собственным духом.--Качество :WEB-DLRip 1080p
Формат: MKV
Видео кодек: H264
Видео: 5100Кбит/сек,1916х1076(16.9),в 23.976кадр/сек,AVC ([email protected])(CABAC/4 Ref Frames)
Аудио Кодек:AC3
Аудио #1:AC3 , 384 Kbps, 48.0 KHz, 6 ch- -NewStudio
Аудио #2: AC3, 384 Kbps, 48.0 KHz, 6 ch - - OMSKBIRD
Аудио #3: AC3, 384 Kbps, 48.0 KHz, 6 ch - - AMC
Аудио #4: AC3, 384 Kbps, 48.0 KHz, 6 ch - -Ideafilm
Аудио #5: AC3, 384 Kbps, 48.0 KHz, 6 ch - - BaibaKo
Аудио #6: AC3, 384 Kbps, 48.0 KHz,6 ch - - English--Релиз от: Nikolai.Baranov & PIRATIYA -

Доп. информация:

Звуковая дорожка сделана путем наложения чистого голоса озвучивателей на центральный канал оригинальной дорожки. Качество идентично звуковой дорожке.
- -

MediaInfo сезона

Общее
Уникальный идентификатор : 176896574480022578980534081686445518801 (0x85150A7DFF355C24869EB0CE97B06FD1)
Полное имя : D:\С Е РЕ А Л Ы\В пустыне смерти\Into_the_Badlands_2015_S01_RUS_ENG[NewStudio_OMSKBIRD_AMC_ Ideafilm_BaibaKo]_x264_N.B_WEB-DLRip_1080p\Into_the_Badlands_2015_S01E01_5xRUS_ENG_x264_N.B_WEB-DLRip_1080p.mkv
Формат : Matroska
Версия формата : Version 4 / Version 2
Размер файла : 2,28 Гбайт
Продолжительность : 44 м.
Общий поток : 7407 Кбит/сек
Название фильма : Into_the_Badlands_2015_S01E01_5xRUS_ENG_x264_N.B_WEB-DLRip_1080p
Дата кодирования : UTC 2015-12-22 19:35:19
Программа кодирования : mkvmerge v8.6.1 ('Flying') 64bit
Библиотека кодирования : libebml v1.3.3 + libmatroska v1.4.4
Видео
Идентификатор : 1
Формат : AVC
Формат/Информация : Advanced Video Codec
Профиль формата : [email protected]
Параметр CABAC формата : Да
Параметр ReFrames формата : 4 кадра
Идентификатор кодека : V_MPEG4/ISO/AVC
Продолжительность : 44 м.
Битрейт : 5100 Кбит/сек
Ширина : 1916 пикселей
Высота : 1076 пикселей
Соотношение сторон : 16:9
Режим частоты кадров : Постоянный
Частота кадров : 23,976 (24000/1001) кадра/сек
Цветовое пространство : YUV
Субдискретизация насыщенности : 4:2:0
Битовая глубина : 8 бит
Тип развёртки : Прогрессивная
Бит/(Пиксели*Кадры) : 0.103
Размер потока : 1,57 Гбайт (69%)
Язык : English
Default : Да
Forced : Нет
Цветовой диапазон : Limited
Основные цвета : BT.709
Характеристики трансфера : BT.709
Коэффициенты матрицы : BT.709
Аудио #1
Идентификатор : 3
Формат : AC-3
Формат/Информация : Audio Coding 3
Расширение режима : CM (complete main)
Параметр Endianness формата : Big
Идентификатор кодека : A_AC3
Продолжительность : 44 м.
Вид битрейта : Постоянный
Битрейт : 384 Кбит/сек
Каналы : 6 каналов
Расположение каналов : Front: L C R, Side: L R, LFE
Частота : 48,0 КГц
Частота кадров : 31,250 кадров/сек (1536 spf)
Метод сжатия : С потерями
Размер потока : 121 Мбайт (5%)
Заголовок : NewStudio.TV
Язык : Russian
Default : Да
Forced : Нет
Аудио #2
Идентификатор : 4
Формат : AC-3
Формат/Информация : Audio Coding 3
Расширение режима : CM (complete main)
Параметр Endianness формата : Big
Идентификатор кодека : A_AC3
Продолжительность : 44 м.
Вид битрейта : Постоянный
Битрейт : 384 Кбит/сек
Каналы : 6 каналов
Расположение каналов : Front: L C R, Side: L R, LFE
Частота : 48,0 КГц
Частота кадров : 31,250 кадров/сек (1536 spf)
Метод сжатия : С потерями
Размер потока : 121 Мбайт (5%)
Заголовок : OmskBird 5.1
Язык : Russian
Default : Нет
Forced : Нет
Аудио #3
Идентификатор : 5
Формат : AC-3
Формат/Информация : Audio Coding 3
Расширение режима : CM (complete main)
Параметр Endianness формата : Big
Идентификатор кодека : A_AC3
Продолжительность : 44 м.
Вид битрейта : Постоянный
Битрейт : 384 Кбит/сек
Каналы : 6 каналов
Расположение каналов : Front: L C R, Side: L R, LFE
Частота : 48,0 КГц
Частота кадров : 31,250 кадров/сек (1536 spf)
Метод сжатия : С потерями
Размер потока : 121 Мбайт (5%)
Default : Нет
Forced : Нет
Аудио #4
Идентификатор : 6
Формат : AC-3
Формат/Информация : Audio Coding 3
Расширение режима : CM (complete main)
Параметр Endianness формата : Big
Идентификатор кодека : A_AC3
Продолжительность : 44 м.
Вид битрейта : Постоянный
Битрейт : 384 Кбит/сек
Каналы : 6 каналов
Расположение каналов : Front: L C R, Side: L R, LFE
Частота : 48,0 КГц
Частота кадров : 31,250 кадров/сек (1536 spf)
Метод сжатия : С потерями
Размер потока : 121 Мбайт (5%)
Default : Нет
Forced : Нет
Аудио #5
Идентификатор : 7
Формат : AC-3
Формат/Информация : Audio Coding 3
Расширение режима : CM (complete main)
Параметр Endianness формата : Big
Идентификатор кодека : A_AC3
Продолжительность : 43 м.
Вид битрейта : Постоянный
Битрейт : 384 Кбит/сек
Каналы : 6 каналов
Расположение каналов : Front: L C R, Side: L R, LFE
Частота : 48,0 КГц
Частота кадров : 31,250 кадров/сек (1536 spf)
Метод сжатия : С потерями
Размер потока : 121 Мбайт (5%)
Default : Нет
Forced : Нет
Аудио #6
Идентификатор : 8
Формат : AC-3
Формат/Информация : Audio Coding 3
Расширение режима : CM (complete main)
Параметр Endianness формата : Big
Идентификатор кодека : A_AC3
Продолжительность : 44 м.
Вид битрейта : Постоянный
Битрейт : 384 Кбит/сек
Каналы : 6 каналов
Расположение каналов : Front: L C R, Side: L R, LFE
Частота : 48,0 КГц
Частота кадров : 31,250 кадров/сек (1536 spf)
Метод сжатия : С потерями
Размер потока : 121 Мбайт (5%)
Язык : English
Default : Нет
Forced : Нет
Текст
Идентификатор : 2
Формат : UTF-8
Идентификатор кодека : S_TEXT/UTF8
Идентификатор кодека/Информация : UTF-8 Plain Text
Продолжительность : 43 м.
Битрейт : 47 бит/сек
Count of elements : 465
Размер потока : 15,0 Кбайт (0%)
Язык : English
Default : Нет
Forced : Нет
--

Скриншоты

-

Как закачать отдельный файл

1. Открыть торрент
2. Снять галки с тех файлов торрента, которые мы не хотим закачивать. Оставляем только на нужных нам файлах (файле).
3. Нажать О.К.
В клиенте utorrent
Инструкция
1) Открыть торрент

2) Снять галки с тех файлов торрента, которые мы не хотим закачивать:
* либо вручную, снимая с каждого файла галку( скрин №1)
* либо, нажав кнопку "Снять метки (Select None)", сняв сразу со всех файлов(скрин №2)
№1

№2

Оставляем только на нужных нам файлах (файле).

3)Нажать О.К
- -

Создавать темы 26-Дек-2015 18:38 (спустя 17 минут)

Baranov, aa рады видеть Вас ан трекере.-Хочется отметить что на трекере действуют небольшие правила оформления.
Скриншоты нужно оформлять в тег [thumb]прямая-ссылка.png[/thumb]
Тажке не стоит использовать много графических анимаций с просьбой "Спасибо" "Скачать"-Данный релиз отредактировал. Можете брать как пример
Яндекс.Метрика
Рейтинг@Mail.ru