Шпионский мост / Bridge of Spies (2015) BDRip 720p | Чистый звук

 

Создавать темы 20-Янв-2016 16:19

Производство: США, Индия, Германия
Жанр: Триллер, драма, биография
Режиссер: Стивен Спилберг
Продюсеры: Кристи Макоско Кригер, Марк Э. Платт, Стивен Спилберг
Актеры: Том Хэнкс, Алан Алда, Эми Райан, Остин Стоуэлл, Билли Магнуссен, Ив Хьюсон, Марк Райлэнс, Доменик Ломбардоззи, Себастьян Кох, Майкл Гэстон
Описание:
Действие фильма происходит на фоне серии реальных исторических событий и рассказывает о бруклинском адвокате Джеймсе Доноване, который оказывается в эпицентре холодной войны, когда ЦРУ отправляет его на практически невозможное задание — договориться об освобождении захваченного в СССР американского пилота самолета-разведчика U2.- -Продолжительность: 02:21:19
Качество видео: BDRip 720p
Перевод: Дублированный (Чистый звук)
Вид субтитров: вшитые отключаемые
Язык субтитров: Английский
Видео: AVC/H.264, 1280x536, ~5133 kbps
Аудио: AC3, 2 ch, 192 kbps, CBR - RUS / DTS, 1 509 Kbps, 6 channels - ENG
Сэмпл

MI

Bridge of Spies 2015 720p.mkv
General
Unique ID : 198394070293970177475134655337448191951 (0x95414EDE1F0EAEC68385FD6278E1B7CF)
Complete name : Bridge of Spies 2015 720p.mkv
Format : Matroska
Format version : Version 4 / Version 2
File size : 6.75 GiB
Duration : 2h 21mn
Overall bit rate : 6 836 Kbps
Movie name : Bridge of Spies (2015)
Encoded date : UTC 2016-01-20 03:27:40
Writing application : mkvmerge v8.7.0 ('All of the above') 64bit
Writing library : libebml v1.3.3 + libmatroska v1.4.4
DURATION : 02:07:26.739000000
NUMBER_OF_FRAMES : 1947
NUMBER_OF_BYTES : 62888
_STATISTICS_WRITING_APP : mkvmerge v8.7.0 ('All of the above') 64bit
_STATISTICS_WRITING_DATE_UTC : 2016-01-20 03:27:40
_STATISTICS_TAGS : BPS DURATION NUMBER_OF_FRAMES NUMBER_OF_BYTES
Video #1
ID : 1
Format : AVC
Format/Info : Advanced Video Codec
Format profile : [email protected]
Format settings, CABAC : Yes
Format settings, ReFrames : 5 frames
Codec ID : V_MPEG4/ISO/AVC
Duration : 2h 21mn
Bit rate : 5 133 Kbps
Width : 1 280 pixels
Height : 536 pixels
Display aspect ratio : 2.40:1
Frame rate mode : Constant
Frame rate : 23.976 fps
Color space : YUV
Chroma subsampling : 4:2:0
Bit depth : 8 bits
Scan type : Progressive
Bits/(Pixel*Frame) : 0.312
Stream size : 4.93 GiB (73%)
Writing library : x264 core 148 r2638 7599210
Encoding settings : cabac=1 / ref=5 / deblock=1:0:0 / analyse=0x3:0x133 / me=umh / subme=7 / psy=1 / psy_rd=1.00:0.00 / mixed_ref=1 / me_range=16 / chroma_me=1 / trellis=1 / 8x8dct=1 / cqm=0 / deadzone=21,11 / fast_pskip=0 / chroma_qp_offset=-2 / threads=17 / lookahead_threads=2 / sliced_threads=0 / nr=0 / decimate=1 / interlaced=0 / bluray_compat=0 / constrained_intra=0 / bframes=3 / b_pyramid=2 / b_adapt=1 / b_bias=0 / direct=1 / weightb=1 / open_gop=0 / weightp=2 / keyint=250 / keyint_min=23 / scenecut=40 / intra_refresh=0 / rc_lookahead=40 / rc=2pass / mbtree=1 / bitrate=5133 / ratetol=1.0 / qcomp=0.60 / qpmin=0 / qpmax=69 / qpstep=4 / cplxblur=20.0 / qblur=0.5 / ip_ratio=1.40 / aq=1:1.00
Default : Yes
Forced : No
Audio #2
ID : 2
Format : AC-3
Format/Info : Audio Coding 3
Mode extension : CM (complete main)
Format settings, Endianness : Big
Codec ID : A_AC3
Duration : 2h 21mn
Bit rate mode : Constant
Bit rate : 192 Kbps
Channel(s) : 2 channels
Channel positions : Front: L R
Sampling rate : 48.0 KHz
Compression mode : Lossy
Stream size : 194 MiB (3%)
Language : Russian
Default : Yes
Forced : No
Audio #3
ID : 3
Format : DTS
Format/Info : Digital Theater Systems
Format profile : ES
Mode : 16
Format settings, Endianness : Big
Codec ID : A_DTS
Duration : 2h 21mn
Bit rate mode : Constant
Bit rate : 1 509 Kbps
Channel(s) : 6 channels
Channel positions : Front: L C R, Side: L R, LFE
Sampling rate : 48.0 KHz
Bit depth : 24 bits
Compression mode : Lossy
Stream size : 1.49 GiB (22%)
Language : English
Default : No
Forced : No
Text #4
ID : 4
Format : UTF-8
Codec ID : S_TEXT/UTF8
Codec ID/Info : UTF-8 Plain Text
Default : Yes
Forced : No

Скриншоты

Внимание, присутствуют вставки голосовой и текстовой рекламы..
Яндекс.Метрика
Рейтинг@Mail.ru