Шпионский мост / Bridge of Spies (2015) BDRip 720p | iTunes

 

Создавать темы 02-Фев-2016 08:19

Производство: США, Германия, Индия / Amblin Entertainment, DreamWorks SKG, Fox 2000 Pictures
Жанр: триллер, драма, биография
Режиссер: Стивен Спилберг
Продюсер: Кристи Макоско Кригер, Марк Э. Платт, Стивен Спилберг
Актеры: Том Хэнкс, Марк Райлэнс, Эми Райан, Алан Алда, Остин Стоуэлл, Скотт Шеперд, Джесси Племонс, Доменик Ломбардоззи, Себастьян Кох, Ив Хьюсон, Дэкин Мэтьюз, Майкл Гэстон, Питер МакРобби, Стефан Канкен, Джошуа Харто, Билли Магнуссен, Марк Цак, Эдвард Джеймс Хайланд, Марко Кака, Михаил Горевой, Джон Окума
Описание:
Действие фильма происходит на фоне серии реальных исторических событий и рассказывает о бруклинском адвокате Джеймсе Доноване, который оказывается в эпицентре холодной войны, когда ЦРУ отправляет его на практически невозможное задание — договориться об освобождении захваченного в СССР американского пилота самолета-разведчика U2.

Рейтинг MPAA: PG - детям до 13 лет просмотр не желателен
Дата мировой премьеры: 4 октября 2015
Дата российской премьеры: 3 декабря 2015, «Двадцатый Век Фокс СНГ»
Продолжительность: 02:21:21
Качество: BDRip 720p
Перевод: Профессиональный (полное дублирование) (iTunes)
Вид субтитров: Вшитые, отключаемые
Язык субтитров: Русский (форсированные), Английский
Видео: MPEG-4 AVC/H.264, 1280x534, (2.40:1), 5 808 Kbps, 23,976 fps
Аудио: AC3, 6 ch, 384 kbps - Русский
Аудио: AC3, 6 ch, 640 kbps - Английский

MediaInfo:

General
Unique ID : 232202096702837126778348069907897622679 (0xAEB07F432FFE2EAB84DA3D4A8EE5A097)
Complete name : Bridge of Spies BDRip 720p.2015.D.mkv
Format : Matroska
Format version : Version 4 / Version 2
File size : 6.88 GiB
Duration : 2h 21mn
Overall bit rate : 6 971 Kbps
Encoded date : UTC 2016-02-01 19:10:46
Writing application : mkvmerge v8.3.0 ('Over the Horizon') 64bit
Writing library : libebml v1.3.1 + libmatroska v1.4.2
DURATION : 02:10:35.619000000
NUMBER_OF_FRAMES : 1746
NUMBER_OF_BYTES : 60502
_STATISTICS_WRITING_APP : mkvmerge v8.3.0 ('Over the Horizon') 64bit
_STATISTICS_WRITING_DATE_UTC : 2016-02-01 19:10:46
_STATISTICS_TAGS : BPS DURATION NUMBER_OF_FRAMES NUMBER_OF_BYTES
Video
ID : 1
Format : AVC
Format/Info : Advanced Video Codec
Format profile : [email protected]
Format settings, CABAC : Yes
Format settings, ReFrames : 12 frames
Codec ID : V_MPEG4/ISO/AVC
Duration : 2h 21mn
Bit rate : 5 808 Kbps
Width : 1 280 pixels
Height : 534 pixels
Display aspect ratio : 2.40:1
Frame rate mode : Constant
Frame rate : 23.976 fps
Color space : YUV
Chroma subsampling : 4:2:0
Bit depth : 8 bits
Scan type : Progressive
Bits/(Pixel*Frame) : 0.354
Stream size : 5.73 GiB (83%)
Writing library : x264 core 148 r2638+53 bb29004 t_mod_Custom [[email protected] X86_64]
Encoding settings : cabac=1 / ref=12 / deblock=1:-3:-3 / analyse=0x3:0x133 / me=umh / subme=11 / psy=1 / fade_compensate=0.00 / psy_rd=1.05:0.00 / mixed_ref=1 / me_range=48 / chroma_me=1 / trellis=2 / 8x8dct=1 / cqm=0 / deadzone=21,11 / fast_pskip=1 / chroma_qp_offset=-2 / threads=8 / lookahead_threads=2 / sliced_threads=0 / nr=0 / decimate=0 / interlaced=0 / bluray_compat=0 / constrained_intra=0 / fgo=0 / bframes=10 / b_pyramid=2 / b_adapt=2 / b_bias=0 / direct=3 / weightb=1 / open_gop=0 / weightp=2 / keyint=250 / keyint_min=23 / scenecut=40 / intra_refresh=0 / rc_lookahead=150 / rc=crf / mbtree=0 / crf=16.9000 / qcomp=0.70 / qpmin=0:0:0 / qpmax=69:69:69 / qpstep=4 / vbv_maxrate=50000 / vbv_bufsize=62500 / crf_max=0.0 / nal_hrd=none / filler=0 / ip_ratio=1.30 / pb_ratio=1.20 / aq=3:0.75 / aq-sensitivity=10.00 / aq-factor=1.00:1.00:1.00 / aq2=0 / aq3=0
Language : English
Default : Yes
Forced : No
DURATION : 02:21:19.638000000
NUMBER_OF_FRAMES : 203308
NUMBER_OF_BYTES : 6302717121
_STATISTICS_WRITING_APP : mkvmerge v8.3.0 ('Over the Horizon') 64bit
_STATISTICS_WRITING_DATE_UTC : 2016-02-01 19:10:46
_STATISTICS_TAGS : BPS DURATION NUMBER_OF_FRAMES NUMBER_OF_BYTES
Audio #1
ID : 2
Format : AC-3
Format/Info : Audio Coding 3
Mode extension : CM (complete main)
Format settings, Endianness : Big
Codec ID : A_AC3
Duration : 2h 21mn
Bit rate mode : Constant
Bit rate : 384 Kbps
Channel(s) : 6 channels
Channel positions : Front: L C R, Side: L R, LFE
Sampling rate : 48.0 KHz
Bit depth : 16 bits
Compression mode : Lossy
Delay relative to video : 1s 820ms
Stream size : 388 MiB (6%)
Language : Russian
Default : Yes
Forced : No
Audio #2
ID : 3
Format : AC-3
Format/Info : Audio Coding 3
Mode extension : CM (complete main)
Format settings, Endianness : Big
Codec ID : A_AC3
Duration : 2h 21mn
Bit rate mode : Constant
Bit rate : 640 Kbps
Channel(s) : 6 channels
Channel positions : Front: L C R, Side: L R, LFE
Sampling rate : 48.0 KHz
Bit depth : 16 bits
Compression mode : Lossy
Stream size : 647 MiB (9%)
Language : English
Default : No
Forced : No
Text #1
ID : 4
Format : UTF-8
Codec ID : S_TEXT/UTF8
Codec ID/Info : UTF-8 Plain Text
Title : Forced
Language : Russian
Default : Yes
Forced : Yes
Text #2
ID : 5
Format : UTF-8
Codec ID : S_TEXT/UTF8
Codec ID/Info : UTF-8 Plain Text
Language : English
Default : No
Forced : No
Menu
00:00:00.000 : en:Chapter 1
00:10:29.462 : en:Chapter 2
00:17:46.482 : en:Chapter 3
00:22:09.828 : en:Chapter 4
00:25:27.901 : en:Chapter 5
00:31:18.210 : en:Chapter 6
00:37:45.722 : en:Chapter 7
00:45:29.268 : en:Chapter 8
00:52:36.695 : en:Chapter 9
01:00:39.427 : en:Chapter 10
01:07:17.867 : en:Chapter 11
01:16:52.399 : en:Chapter 12
01:33:55.672 : en:Chapter 13
01:45:41.752 : en:Chapter 14
01:56:31.193 : en:Chapter 15
02:07:20.550 : en:Chapter 16
02:14:18.801 : en:Chapter 17

Скриншоты:

Время раздачи: 24/7
Яндекс.Метрика
Рейтинг@Mail.ru