Лунная афера / Moonwalkers (2015) BDRip 720p | iTunes

 

Создавать темы 06-Мар-2016 21:34

Лунная афера / Moonwalkers
Производство: Франция / Nexus Factory, Partizan Films, Potemkino,
Жанр: комедия
Режиссер: Антуан Бардо-Жаке
Продюсер: Жорж Берманн, Дэвид Клейкенс, Алекс Вербаер
Актеры: Руперт Гринт, Рон Перлман, Роберт Шиэн, Стивен Кэмпбелл Мур, Том Ауденарт, Кевин Бишоп, Эрик Лёмпарт, Эрика Сэйнт, Джей Бенедикт, Джон Фландерс.
Описание:
Тайный агент ЦРУ отправляется в Лондон, чтобы разыскать там Стэнли Кубрика и заказать ему фильм про высадку астронавтов на лунную поверхность на случай провала реальной миссии. Но вместо Кубрика агент нарывается на афериста Джонни, который устраивает съемки сверхсекретного видео на стремной студии порнофильмов, где невесомость достигается благодаря крепкому косяку…

Возраст: 18+ (зрителям, достигшим 18 лет. запрещено для детей)
Рейтинг MPAA: R (лицам до 17 лет обязательно присутствие взрослого)
Дата мировой премьеры: 14 марта 2015
Дата российской премьеры: 25 февраля 2016, «Парадиз»
Продолжительность: 01:36:22
Качество: BDRip 720p
Перевод: Дублированный (iTunes)
Вид субтитров: Вшитые, отключаемые
Язык субтитров: Английский
Видео: AVC/H.264, 1280x538, (2,40:1), 5 060 Kbps, 23,976 fps
Аудио: AC3, 6 ch, 384 kbps - Русский
Аудио: AC3, 6 ch, 640 kbps - Английский

MediaInfo:

Format                                   : Matroska
Format version                           : Version 4 / Version 2
File size                                : 4.18 GiB
Duration                                 : 1h 36mn
Overall bit rate                         : 6 208 Kbps
Encoded date                             : UTC 2016-03-04 20:06:34
Writing application                      : mkvmerge v8.3.0 ('Over the Horizon') 64bit
Writing library                          : libebml v1.3.1 + libmatroska v1.4.2
DURATION                                 : 01:36:22.464000000
NUMBER_OF_FRAMES                         : 180702
NUMBER_OF_BYTES                          : 277558272
_STATISTICS_WRITING_APP                  : mkvmerge v8.3.0 ('Over the Horizon') 64bit
_STATISTICS_WRITING_DATE_UTC             : 2016-03-04 20:06:34
_STATISTICS_TAGS                         : BPS DURATION NUMBER_OF_FRAMES NUMBER_OF_BYTES
Video
ID                                       : 1
Format                                   : AVC
Format/Info                              : Advanced Video Codec
Format profile                           : [email protected]
Format settings, CABAC                   : Yes
Format settings, ReFrames                : 12 frames
Codec ID                                 : V_MPEG4/ISO/AVC
Duration                                 : 1h 36mn
Bit rate                                 : 5 060 Kbps
Width                                    : 1 280 pixels
Height                                   : 538 pixels
Display aspect ratio                     : 2.40:1
Frame rate mode                          : Constant
Frame rate                               : 23.976 fps
Color space                              : YUV
Chroma subsampling                       : 4:2:0
Bit depth                                : 8 bits
Scan type                                : Progressive
Bits/(Pixel*Frame)                       : 0.306
Stream size                              : 3.41 GiB (82%)
Title                                    : ENCODE CRiME
Writing library                          : x264 core 148 r2665 a01e339
Encoding settings                        : cabac=1 / ref=12 / deblock=1:-3:-3 / analyse=0x3:0x133 / me=umh / subme=10 / psy=1 / psy_rd=1.00:0.00 / mixed_ref=1 / me_range=32 / chroma_me=1 / trellis=2 / 8x8dct=1 / cqm=0 / deadzone=21,11 / fast_pskip=0 / chroma_qp_offset=-2 / threads=6 / lookahead_threads=1 / sliced_threads=0 / nr=0 / decimate=0 / interlaced=0 / bluray_compat=0 / constrained_intra=0 / bframes=9 / b_pyramid=2 / b_adapt=2 / b_bias=0 / direct=3 / weightb=1 / open_gop=0 / weightp=2 / keyint=250 / keyint_min=24 / scenecut=40 / intra_refresh=0 / rc_lookahead=60 / rc=crf / mbtree=0 / crf=17.5 / qcomp=0.65 / qpmin=0 / qpmax=69 / qpstep=4 / vbv_maxrate=62500 / vbv_bufsize=78125 / crf_max=0.0 / nal_hrd=none / filler=0 / ip_ratio=1.30 / pb_ratio=1.20 / aq=3:0.73 / zones=7494,7533,crf=15.5/14295,14696,crf=14.5/15478,16610,crf=15.5/32029,32832,crf=15.5/48947,52106,crf=15.5/66880,67323,crf=16.5/75367,75413,crf=14.5/79232,79404,crf=15.5/90908,91134,crf=16/96375,97900,crf=15.5/110735,111212,crf=15.5/112428,114760,crf=15.5/118910,118986,crf=16.5/120762,120791,crf=16.5/133330,138639,crf=22.5
Language                                 : English
Default                                  : Yes
Forced                                   : No
DURATION                                 : 01:36:22.402000000
NUMBER_OF_FRAMES                         : 138639
NUMBER_OF_BYTES                          : 3745115590
_STATISTICS_WRITING_APP                  : mkvmerge v8.3.0 ('Over the Horizon') 64bit
_STATISTICS_WRITING_DATE_UTC             : 2016-03-04 20:06:34
_STATISTICS_TAGS                         : BPS DURATION NUMBER_OF_FRAMES NUMBER_OF_BYTES
Audio #1
ID                                       : 2
Format                                   : AC-3
Format/Info                              : Audio Coding 3
Mode extension                           : CM (complete main)
Format settings, Endianness              : Big
Codec ID                                 : A_AC3
Duration                                 : 1h 36mn
Bit rate mode                            : Constant
Bit rate                                 : 384 Kbps
Channel(s)                               : 6 channels
Channel positions                        : Front: L C R, Side: L R, LFE
Sampling rate                            : 48.0 KHz
Bit depth                                : 16 bits
Compression mode                         : Lossy
Stream size                              : 265 MiB (6%)
Language                                 : Russian
Default                                  : Yes
Forced                                   : No
Audio #2
ID                                       : 3
Format                                   : AC-3
Format/Info                              : Audio Coding 3
Mode extension                           : CM (complete main)
Format settings, Endianness              : Big
Codec ID                                 : A_AC3
Duration                                 : 1h 36mn
Bit rate mode                            : Constant
Bit rate                                 : 640 Kbps
Channel(s)                               : 6 channels
Channel positions                        : Front: L C R, Side: L R, LFE
Sampling rate                            : 48.0 KHz
Bit depth                                : 16 bits
Compression mode                         : Lossy
Stream size                              : 441 MiB (10%)
Language                                 : English
Default                                  : No
Forced                                   : No
Text
ID                                       : 4
Format                                   : UTF-8
Codec ID                                 : S_TEXT/UTF8
Codec ID/Info                            : UTF-8 Plain Text
Title                                    : SDH
Language                                 : English
Default                                  : No
Forced                                   : No
Menu
00:00:00.000                             : en:A Big Night
00:07:15.017                             : en:Backup Plan
00:17:06.275                             : en:Getting Kubrick
00:25:32.864                             : en:A Low Profile
00:33:24.335                             : en:Serious Triuble
00:42:06.899                             : en:Best Film Idea
00:50:11.425                             : en:Creative Differences
00:59:50.545                             : en:A Bit Stressed
01:08:17.635                             : en:Relaxed State
01:15:43.205                             : en:Phase Two
01:23:31.965                             : en:Crashing the Party
01:32:55.069                             : en:Credits
[/code]

Скриншоты:

Яндекс.Метрика
Рейтинг@Mail.ru