Выживший / The Revenant (2015) BDRip [H.264/1080p]

 

Создавать темы 10-Апр-2016 07:56

-Выживший / The Revenant (2015) BDRip [H.264/1080p]«До последней капли крови»- Производство: США / Anonymous Content, Appian Way, New Regency Pictures
Жанр: триллер, драма, приключения, вестерн-Режиссер: Алехандро Гонсалес Иньярриту
Продюсер: Стив Голин, Арнон Милчен, Мэри Пэрент
Актеры: Леонардо ДиКаприо, Том Харди, Донал Глисон, Уилл Поултер, Пол Андерсон, Лукас Хаас, Брэд Картер, Кристоффер Йонер, Брендан Флетчер, Хавьер Ботет, Кори Грим, Роберт Молони, Винсент Леклерк, Джошуа Бёрдж, МакКалеб Барнетт, Рэй Чейз, Тимоти Лайл, Эдриан Макморран, Дэйв Бурчилл, Майкл Виллар
Описание:
Охотник Хью Гласс серьезно ранен на неизведанных просторах американского Дикого Запада. Товарищ Хью по отряду покорителей новых земель Джон Фицжеральд предательски оставляет его умирать в одиночестве. Теперь у Гласса осталось только одно оружие — его сила воли. Он готов бросить вызов первобытной природе, суровой зиме и враждебным племенам индейцев, только чтобы выжить и отомстить Фицжеральду.
-Возраст: 18+ (зрителям, достигшим 18 лет. запрещено для детей)
Рейтинг MPAA: R (лицам до 17 лет обязательно присутствие взрослого)
Дата мировой премьеры: 16 декабря 2015
Дата российской премьеры: 7 января 2016, «Двадцатый Век Фокс СНГ»
Награды и номинации

Продолжительность: 02:36:21
Качество: BDRip 1080p
Перевод: Дублированный (iTunes), Авторский (Дмитрий Есарев)
Вид субтитров: Вшитые, отключаемые
Язык субтитров: Русский, Украинский, Английский (форсированные и обычные полные)
Видео: AVC/H.264, 1920x804, (2.40:1), 11.0 Mbps, 23.976 fps
Аудио: AC3, 6 ch, 384 kbps - Русский, Дубляж
Аудио: AC3, 6 ch, 448 kbps - Русский, Дмитрий Есарев
Аудио: DTS, 6 ch, 1509 kbps - Английский

MediaInfo:

General
Unique ID                                : 212371210833194462734639541818175251871 (0x9FC53519EE9DFB87840DF3404ACFE59F)
Complete name                            : S:\На хранении\Выживший (2015. The Revenant) 1080p.mkv
Format                                   : Matroska
Format version                           : Version 4 / Version 2
File size                                : 14.6 GiB
Duration                                 : 2h 36mn
Overall bit rate                         : 13.3 Mbps
Movie name                               : Release for
Encoded date                             : UTC 2016-04-09 15:25:08
Writing application                      : mkvmerge v9.0.1 ("Obstacles") 64bit
Writing library                          : libebml v1.3.3 + libmatroska v1.4.4
Cover                                    : Yes
Attachments                              : cover.jpg
Video
ID                                       : 1
Format                                   : AVC
Format/Info                              : Advanced Video Codec
Format profile                           : [url=mailto:[email protected]][email protected][/url]
Format settings, CABAC                   : Yes
Format settings, ReFrames                : 5 frames
Codec ID                                 : V_MPEG4/ISO/AVC
Duration                                 : 2h 36mn
Bit rate                                 : 11.0 Mbps
Width                                    : 1 920 pixels
Height                                   : 804 pixels
Display aspect ratio                     : 2.40:1
Frame rate mode                          : Constant
Frame rate                               : 23.976 (24000/1001) fps
Color space                              : YUV
Chroma subsampling                       : 4:2:0
Bit depth                                : 8 bits
Scan type                                : Progressive
Bits/(Pixel*Frame)                       : 0.297
Stream size                              : 12.0 GiB (82%)
Title                                    : The.Revenant.2015.1080p.BluRay.x264.DTS-HD.MA.7.1-HDChina
Writing library                          : x264 core 148 r2665kMod a01e339
Encoding settings                        : cabac=1 / ref=5 / deblock=1:-3:-3 / analyse=0x3:0x133 / me=umh / subme=11 / psy=1 / fade_compensate=0.00 / psy_rd=0.85:0.00 / mixed_ref=1 / me_range=48 / chroma_me=1 / trellis=2 / 8x8dct=1 / cqm=0 / deadzone=21,11 / fast_pskip=0 / chroma_qp_offset=-2 / threads=24 / lookahead_threads=4 / sliced_threads=0 / nr=0 / decimate=0 / interlaced=0 / bluray_compat=0 / constrained_intra=0 / fgo=0 / bframes=8 / b_pyramid=2 / b_adapt=2 / b_bias=0 / direct=3 / weightb=1 / open_gop=0 / weightp=2 / keyint=240 / keyint_min=24 / scenecut=40 / intra_refresh=0 / rc=2pass / mbtree=0 / bitrate=11000 / ratetol=1.0 / qcomp=0.70 / qpmin=0 / qpmax=69 / qpstep=4 / cplxblur=20.0 / qblur=0.5 / ip_ratio=1.20 / pb_ratio=1.20 / aq=3:0.80
Language                                 : English
Default                                  : Yes
Forced                                   : No
Audio #1
ID                                       : 2
Format                                   : AC-3
Format/Info                              : Audio Coding 3
Mode extension                           : CM (complete main)
Format settings, Endianness              : Big
Codec ID                                 : A_AC3
Duration                                 : 2h 36mn
Bit rate mode                            : Constant
Bit rate                                 : 384 Kbps
Channel(s)                               : 6 channels
Channel positions                        : Front: L C R, Side: L R, LFE
Sampling rate                            : 48.0 KHz
Frame rate                               : 31.250 fps (1536 spf)
Compression mode                         : Lossy
Stream size                              : 429 MiB (3%)
Title                                    : Дубляж
Language                                 : Russian
Default                                  : Yes
Forced                                   : No
Audio #2
ID                                       : 3
Format                                   : AC-3
Format/Info                              : Audio Coding 3
Mode extension                           : CM (complete main)
Format settings, Endianness              : Big
Codec ID                                 : A_AC3
Duration                                 : 2h 36mn
Bit rate mode                            : Constant
Bit rate                                 : 448 Kbps
Channel(s)                               : 6 channels
Channel positions                        : Front: L C R, Side: L R, LFE
Sampling rate                            : 48.0 KHz
Frame rate                               : 31.250 fps (1536 spf)
Compression mode                         : Lossy
Stream size                              : 501 MiB (3%)
Title                                    : Дмитрий Есарев
Language                                 : Russian
Default                                  : No
Forced                                   : No
Audio #3
ID                                       : 4
Format                                   : DTS
Format/Info                              : Digital Theater Systems
Mode                                     : 16
Format settings, Endianness              : Big
Codec ID                                 : A_DTS
Duration                                 : 2h 36mn
Bit rate mode                            : Constant
Bit rate                                 : 1 509 Kbps
Channel(s)                               : 6 channels
Channel positions                        : Front: L C R, Side: L R, LFE
Sampling rate                            : 48.0 KHz
Frame rate                               : 93.750 fps (512 spf)
Bit depth                                : 24 bits
Compression mode                         : Lossy
Stream size                              : 1.65 GiB (11%)
Language                                 : English
Default                                  : No
Forced                                   : No
Text #1
ID                                       : 5
Format                                   : UTF-8
Codec ID                                 : S_TEXT/UTF8
Codec ID/Info                            : UTF-8 Plain Text
Duration                                 : 2h 35mn
Bit rate                                 : 5 bps
Count of elements                        : 146
Stream size                              : 6.05 KiB (0%)
Title                                    : forced
Language                                 : Russian
Default                                  : Yes
Forced                                   : No
Text #2
ID                                       : 6
Format                                   : UTF-8
Codec ID                                 : S_TEXT/UTF8
Codec ID/Info                            : UTF-8 Plain Text
Duration                                 : 2h 35mn
Bit rate                                 : 37 bps
Count of elements                        : 847
Stream size                              : 43.0 KiB (0%)
Language                                 : Russian
Default                                  : No
Forced                                   : No
Text #3
ID                                       : 7
Format                                   : UTF-8
Codec ID                                 : S_TEXT/UTF8
Codec ID/Info                            : UTF-8 Plain Text
Duration                                 : 2h 35mn
Bit rate                                 : 3 bps
Count of elements                        : 135
Stream size                              : 3.56 KiB (0%)
Title                                    : forced
Language                                 : English
Default                                  : No
Forced                                   : No
Text #4
ID                                       : 8
Format                                   : UTF-8
Codec ID                                 : S_TEXT/UTF8
Codec ID/Info                            : UTF-8 Plain Text
Duration                                 : 2h 35mn
Bit rate                                 : 23 bps
Count of elements                        : 834
Stream size                              : 26.6 KiB (0%)
Language                                 : English
Default                                  : No
Forced                                   : No
Text #5
ID                                       : 9
Format                                   : UTF-8
Codec ID                                 : S_TEXT/UTF8
Codec ID/Info                            : UTF-8 Plain Text
Duration                                 : 2h 35mn
Bit rate                                 : 5 bps
Count of elements                        : 146
Stream size                              : 5.76 KiB (0%)
Language                                 : Ukrainian
Default                                  : No
Forced                                   : No
Text #6
ID                                       : 10
Format                                   : UTF-8
Codec ID                                 : S_TEXT/UTF8
Codec ID/Info                            : UTF-8 Plain Text
Duration                                 : 2h 35mn
Bit rate                                 : 38 bps
Count of elements                        : 846
Stream size                              : 44.5 KiB (0%)
Language                                 : Ukrainian
Default                                  : No
Forced                                   : No
Menu
00:00:00.000                             : en:00:00:00.000
00:05:04.846                             : en:00:05:04.846
00:07:58.311                             : en:00:07:58.311
00:13:18.965                             : en:00:13:18.965
00:21:10.686                             : en:00:21:10.686
00:28:21.658                             : en:00:28:21.658
00:37:07.767                             : en:00:37:07.767
00:44:00.346                             : en:00:44:00.346
00:48:14.975                             : en:00:48:14.975
00:51:42.266                             : en:00:51:42.266
00:56:51.033                             : en:00:56:51.033
00:59:50.754                             : en:00:59:50.754
01:03:31.766                             : en:01:03:31.766
01:11:52.433                             : en:01:11:52.433
01:16:36.133                             : en:01:16:36.133
01:21:22.377                             : en:01:21:22.377
01:28:31.139                             : en:01:28:31.139
01:37:29.969                             : en:01:37:29.969
01:48:44.643                             : en:01:48:44.643
01:53:08.782                             : en:01:53:08.782
01:59:05.930                             : en:01:59:05.930
02:02:56.703                             : en:02:02:56.703
02:15:45.262                             : en:02:15:45.262
02:22:51.021                             : en:02:22:51.021
Скриншоты:
Время раздачи: 24/7
Яндекс.Метрика
Рейтинг@Mail.ru