Герой (2016) WEB-DLRip

 

Создавать темы 25-Апр-2016 09:03

Герой (2016) WEB-DLRip - Производство: Россия, Фонд кино
Жанр: Драма, Военный
Режиссер: Юрий Васильев
Продюсер: Эльмира Айнулова, Наталия Дорошкевич, Мария Журомская
Актеры: Дима Билан, Светлана Иванова, Александр Балуев, Татьяна Лютаева, Юлия Пересильд, Александр Головин, Марат Башаров, Александр Адабашьян, Лилита Озолиня, Александр Васильев
Описание:
Начало ХХ века. Юная княжна Вера Чернышева и поручик Андрей Долматов знакомятся при весьма странных обстоятельствах. Симпатия, любовь… впереди, казалось, счастливая жизнь. И вдруг — катастрофа. Первая мировая война уводит его на фронт, а ее — медсестрой в госпиталь. Мир перевернулся, он охвачен ненавистью, злобой, жаждой власти. Одна война сменяет другую. Люди делятся на два враждующих лагеря, начинают судить друг друга, чинить жестокую расправу. Огонь времени губит все на своем пути, но любовь — бессмертна, она соединяет несколько поколений и напоминает о себе спустя сто лет.
Возраст: 12+ (зрителям, достигшим 12 лет)
Дата российской премьеры: 31 марта 2016, «Каропрокат»
Продолжительность: 01:16:09
Качество видео: WEB-DLRip
Перевод: Не требуется (русский) iTunes
Вид субтитров: Отсутствуют
Видео: XviD, 720x304, 2177 kb/s
Аудио: 48 kHz, AC3 Dolby Digital, 3/2 (L,C,R,l,r) + LFE ch, ~384 kbps

MediaInfo

Общее
Полное имя : D:\Релизы\Герой.2016.WEB-DLRip.NNMClub.to.avi
Формат : AVI
Формат/Информация : Audio Video Interleave
Размер файла : 1,37 Гбайт
Продолжительность : 1 ч. 16 м.
Общий поток : 2571 Кбит/сек
Программа кодирования : VirtualDubMod 1.5.10.2 (build 2540/release)
Библиотека кодирования : VirtualDubMod build 2540/release
Видео
Идентификатор : 0
Формат : MPEG-4 Visual
Профиль формата : Advanced [email protected]
Параметр BVOP формата : 2
Параметр QPel формата : Нет
Параметр GMC формата : Без точки перехода
Параметр матрицы формата : Default (MPEG)
Идентификатор кодека : XVID
Идентификатор кодека/Подсказка : XviD
Продолжительность : 1 ч. 16 м.
Битрейт : 2177 Кбит/сек
Ширина : 720 пикселей
Высота : 304 пикселя
Соотношение сторон : 2,35:1
Частота кадров : 25,000 кадров/сек
Цветовое пространство : YUV
Субдискретизация насыщенности : 4:2:0
Битовая глубина : 8 бит
Тип развёртки : Прогрессивная
Метод сжатия : С потерями
Бит/(Пиксели*Кадры) : 0.398
Размер потока : 1,16 Гбайт (85%)
Библиотека кодирования : XviD 1.2.1 (UTC 2008-12-04)
Аудио
Идентификатор : 1
Формат : AC-3
Формат/Информация : Audio Coding 3
Расширение режима : CM (complete main)
Параметр Endianness формата : Big
Идентификатор кодека : 2000
Продолжительность : 1 ч. 16 м.
Вид битрейта : Постоянный
Битрейт : 384 Кбит/сек
Каналы : 6 каналов
Расположение каналов : Front: L C R, Side: L R, LFE
Частота : 48,0 КГц
Частота кадров : 31,250 кадров/сек (1536 spf)
Метод сжатия : С потерями
Размер потока : 209 Мбайт (15%)
Выравнивание : Разделение по промежуткам
Продолжительность промежутка : 40 мс. (1,00 видеокадр)
Время предзагрузки промежутка : 500 мс.
Скриншоты:
Яндекс.Метрика
Рейтинг@Mail.ru