Чернобыль. До и после (2016.04.26) SATRip

 

Создавать темы 26-Апр-2016 20:20

- Чернобыль. До и после (2016.04.26) SATRip - Телекомпания: Россия
Жанр: Документальный
Описание:
Эта история стала известна в наши дни. А начиналась она в 1986 году, когда еще не все осознавали, какой катастрофой для страны обернулся тот апрельский день после взрыва на четвертом реакторе Чернобыльской атомной электростанции. На одном из бесконечных совещаний прозвучало: "Нужно посылать к реактору людей". Все понимали, что это означало одно – выбирать смертников. Ситуация не оставляла вариантов. Руководителем группы стал офицер военной контрразведки, принимавший участие в ликвидации последствий аварии на АЭС, Анатолий Ткачук. Каждый из группы понимал, что дорога, которую им предстояла пройти, это дорога в бездну. Шансов вернуться живыми практически не оставалось. Такую битву с атомным реактором человечество не вело никогда. Враг был видимый и невидимый. Разрушения и радиация. Самым сложным было рассчитать допустимую дозу облучения, после которой нужно было покидать АЭС. Первые два месяца оказались самыми драматическими. Появилось слово "ликвидатор". Позже своей емкостью оно многое смогло рассказать о тех днях.
Релиз от: [email protected]
Продолжительность: 00:44:27
Качество видео: SATRip
Субтитры: Отсутствуют
Видео: MPEG4, XviD, 720x400 (16:9), 25.000 fps, 1 795 Kbps (0.249 bit/pixel)
Аудио: AC-3, 48.0 KHz, 2 ch, 128 Kbps, CBR

Mediainfo:

Формат                                   : AVI
Формат/Информация                        : Audio Video Interleave
Размер файла                             : 615 Мбайт
Продолжительность                        : 44 м.
Общий поток                              : 1933 Кбит/сек
Программа кодирования                    : VirtualDubMod 1.5.10.3 | [url=http://www.virtualdub-fr.org]www.virtualdub-fr.org[/url] || (build 2550/release)
Библиотека кодирования                   : VirtualDub build 29808/release
Видео
Идентификатор                            : 0
Формат                                   : MPEG-4 Visual
Профиль формата                          : Advanced [email protected]
Параметр BVOP формата                    : 3
Параметр QPel формата                    : Нет
Параметр GMC формата                     : Без точки перехода
Параметр матрицы формата                 : Default (H.263)
Идентификатор кодека                     : XVID
Идентификатор кодека/Подсказка           : XviD
Продолжительность                        : 44 м.
Битрейт                                  : 1795 Кбит/сек
Ширина                                   : 720 пикселей
Высота                                   : 400 пикселей
Соотношение сторон                       : 16:9
Частота кадров                           : 25,000 кадров/сек
Цветовое пространство                    : YUV
Субдискретизация насыщенности            : 4:2:0
Битовая глубина                          : 8 бит
Тип развёртки                            : Прогрессивная
Метод сжатия                             : С потерями
Бит/(Пиксели*Кадры)                      : 0.249
Размер потока                            : 571 Мбайт (93%)
Библиотека кодирования                   : XviD 1.2.1 (UTC 2008-12-04)
Аудио
Идентификатор                            : 1
Формат                                   : AC-3
Формат/Информация                        : Audio Coding 3
Расширение режима                        : CM (complete main)
Параметр Endianness формата              : Big
Идентификатор кодека                     : 2000
Продолжительность                        : 44 м.
Вид битрейта                             : Постоянный
Битрейт                                  : 128 Кбит/сек
Каналы                                   : 2 канала
Расположение каналов                     : Front: L R
Частота                                  : 48,0 КГц
Битовая глубина                          : 16 бит
Метод сжатия                             : С потерями
Размер потока                            : 40,6 Мбайт (7%)
Выравнивание                             : Разделение по промежуткам
Продолжительность промежутка             : 40  мс. (1,00 видеокадр)
Время предзагрузки промежутка            : 500  мс.
Скриншоты:
-Время раздачи: 24/7. До первых 5 скачавших.
Яндекс.Метрика
Рейтинг@Mail.ru