Законы улиц (Серии 1—24 из 24) (Рустам Уразаев) [2014/16, криминал, HDTVRip]

 

Создавать темы 04-Май-2016 22:34

--Законы улиц--
  • Год выпуска: 2014/16
  • Страна: Россия / «Форвард-фильм»
  • Жанр: криминал
  • Продолжительность: 24 х ~00:45:00
  • Перевод: Не требуется-
  • Режиссёр: Рустам Уразаев-
  • В ролях: Владимир Фекленко, Максим Щёголев, Денис Рожков, Иван Соловьёв, Дмитрий Горевой, Сергей Мурзин, Евгения Соляных, Николай Козак, Андрей Белозеров, Елена Коллегова...-
  • Их рабочий день начинается с прихода в ОВД, а закончиться может когда и как угодно. Может быть, как положено, в 6 часов вечера, может значительно позже, если случилось что-то серьезное, а может и не закончится вообще, если в районе случилось ЧП. Здесь нет преступлений с мировым резонансом, которые может распутать только гениальный сыщик. Раскрытие каждого преступления, как и само преступление, реальны. Четверо оперативников из ОВД №3 - Богун, Стешин, Макаркин и Осипов такие же люди, как и мы, просто работу они выбрали чуть более сложную и опасную, и их задача – выжить, постараться отработать один день и вернуться домой, а еще – хоть как-то умудриться успеть заняться и своей личной жизнью. Каждая серия – это маленькая трагедия или трагикомедия жителей города, участниками которой по долгу службы стали герои.-
  • Премьера в России: 4 мая 2016 (НТВ)--
  • --
  • Качество видео: HDTVRip
  • Формат видео: AVI
  • Видео кодек: XviD
  • Аудио кодек: AC3
  • Видео: 720x400 (1.80:1), 25.000 fps, XviD MPEG-4, ~1500 kbps avg, 0.205 bit/pixel
  • Аудио: 48.0 kHz, AC3 Dolby Digital, 2/0 (L,R) ch, ~192.00 kbps avg
  • Субтитры: нет
--

Внимание ! Раздача ведётся путём добавления новых серий !!!

Внимание! Раздача ведётся путём добавления новых серий; при каждом добавлении создаётся новый торрент. Чтобы начать докачку новой серии, пользователям необходимо сделать следующее:
(1) остановить скачивание,раздачу,
(2) удалить старый торрент у себя из клиента (старые серии удалять не надо),
(3) скачать новый торрент и запустить его у себя в клиенте вместо старого, при этом указать клиенту путь в старую папку куда и должно происходить скачивание новых серий.
Ваш клиент при этом должен произвести хеширование (проверку) старой папки (если не производит сами - помогите ему сделать это), и будет докачивать только те серии которых у вас ещё нет. Старые серии при этом не удаляются, а продолжают раздаваться!
Eсли вы уже удалили старые серии, то предотвратить повторную закачку старых серий можно, отжав галочку в соответствующих местах при запуске нового торрента. По возможности, желательно не удалять старые серии как можно дольше чтобы релизёр не столько продолжал раздавать старые серии, а смог сконцентрироваться на новых.

Media Info

General
Complete name : W:\O.S.A.\Торренты\Завершенные торренты\Zakony.ulic.2014.HDTVRip.Files-x\01.Zakony.ulic.2014.HDTVRip.Files-x.avi
Format : AVI
Format/Info : Audio Video Interleave
File size : 550 MiB
Duration : 45mn 50s
Overall bit rate : 1 677 Kbps
Writing application : VirtualDubModRus 1.5.10.2 (build 2542/release)
Writing library : VirtualDubMod build 2542/release
Video
ID : 0
Format : MPEG-4 Visual
Format profile : Advanced [email protected]
Format settings, BVOP : 1
Format settings, QPel : No
Format settings, GMC : No warppoints
Format settings, Matrix : Custom
Codec ID : XVID
Codec ID/Hint : XviD
Duration : 45mn 50s
Bit rate : 1 475 Kbps
Width : 720 pixels
Height : 400 pixels
Display aspect ratio : 16:9
Frame rate : 25.000 fps
Color space : YUV
Chroma subsampling : 4:2:0
Bit depth : 8 bits
Scan type : Progressive
Compression mode : Lossy
Bits/(Pixel*Frame) : 0.205
Stream size : 484 MiB (88%)
Writing library : XviD 73
Audio
ID : 1
Format : AC-3
Format/Info : Audio Coding 3
Mode extension : CM (complete main)
Codec ID : 2000
Duration : 45mn 50s
Bit rate mode : Constant
Bit rate : 192 Kbps
Channel(s) : 2 channels
Channel positions : Front: L R
Sampling rate : 48.0 KHz
Bit depth : 16 bits
Compression mode : Lossy
Stream size : 63.0 MiB (11%)
Alignment : Split accross interleaves
Interleave, duration : 40 ms (1.00 video frame)
Interleave, preload duration : 500 ms
---- --
Яндекс.Метрика
Рейтинг@Mail.ru