Голос. Второй сезон [Выпуски 01-17 из 17] (2013) HDTVRip

 

Создавать темы 29-Дек-2013 22:54

--Голос (The Voice). Второй сезон. Выпуск 01-17 из 17--
Страна: Россия
Жанр: Pop, Show
Продолжительность: 01:50:00 / выпуск
Год выпуска: 2013 г.-Описание:-Первый канал объявляет о новом сезоне музыкального проекта «Голос», участники которого отбираются исключительно по своим вокальным данным. В шоу проходят только те, кто умеет петь, и делает это очень хорошо. «Голос» принципиально отличается от привычных вокальных конкурсов и шоу по поиску музыкальных талантов. Незаурядные вокальные данные – единственный способ попасть в проект. Только голос! Из 150 претендентов на участие в проекте наставники будут набирать свои команды. Наставники будут оценивать только голоса конкурсантов, не видя их самих. По итогам прослушивания вслепую будут сформированы четыре команды по 14 человек. После того, как команды сформированы, наставники, помогая каждому из своих подопечных лучше подготовиться к финалу, одновременно будут вести в своих командах жесткий внутренний отбор в ходе так называемых «поединков» и «песен навылет». Это музыкальные дуэли, в которых участники одной команды будут противостоять друг другу. Те, кому не повезет, отправятся домой, остальные продолжат путь к славе. Решение о том, кому оставаться в проекте, а кому его покидать, принимает наставник. В этом сезоне битв будет больше, чем в первом. На стадии битв наставники смогут «похитить» двух вокалистов в других командах. Когда в каждой из команд останется только по 6 человек, и придет черед «живых концертов» со зрительским голосованием. По итогам первых двух концертов проект покинут 16 слабейших вокалистов. В полуфинале из 8 отсеются еще четверо. И в финале зрители своим голосованием определят лучший Голос страны!
Наставники проекта - Дима Билан, Леонид Агутин, Александр Градский, Пелагея
Ведущий – Дмитрий Нагиев
Источник: собственный рип
Спасибо за треклисты: ku013-Доп. информация:-Релиз -

Рип чистый. Без посторонних надписей. Выкладывается как есть.
Качество: HDTVRip
Формат: AVI
Видео кодек: XviD
Аудио кодек: MP3
Видео: XviD, 720x400 (16:9) 25.000 fps, 2 100 Kbps, 0.274 bit/pixel
Аудио: MP3, 48000Hz, 2 channels, 192 Кбит/сек

Скриншоты

Скринлисты

Постер HQ

MI

GeneralComplete name : D:ВыкладкаГолос (The Voice). Второй сезон (2013, Pop, Show, HDTVRip) (MYDIMKA)1 выпуск (Эфир 06.09.2013) (MYDIMKA).aviFormat : AVIFormat/Info : Audio Video InterleaveFile size : 1.81 GiBDuration : 1h 52mnOverall bit rate : 2 296 KbpsWriting application : VirtualDubMod 1.5.10.3 | www.virtualdub-fr.org || (build 2550/release)Writing library : VirtualDubMod build 2550/release
VideoID : 0Format : MPEG-4 VisualFormat profile : Advanced [email protected] settings, BVOP : 2Format settings, QPel : NoFormat settings, GMC : No warppointsFormat settings, Matrix : Default (H.263)Muxing mode : Packed bitstreamCodec ID : XVIDCodec ID/Hint : XviDDuration : 1h 52mnBit rate : 2 094 KbpsWidth : 720 pixelsHeight : 400 pixelsDisplay aspect ratio : 16:9Frame rate : 25.000 fpsColor space : YUVChroma subsampling : 4:2:0Bit depth : 8 bitsScan type : ProgressiveCompression mode : LossyBits/(Pixel*Frame) : 0.291Stream size : 1.65 GiB (91%)Writing library : XviD 1.2.1 (UTC 2008-12-04)
AudioID : 1Format : MPEG AudioFormat version : Version 1Format profile : Layer 3Codec ID : 55Codec ID/Hint : MP3Duration : 1h 52mnBit rate mode : ConstantBit rate : 192 KbpsChannel(s) : 2 channelsSampling rate : 48.0 KHzCompression mode : LossyStream size : 155 MiB (8%)Alignment : Aligned on interleavesInterleave, duration : 40 ms (1.00 video frame)Interleave, preload duration : 504 msWriting library : LAME3.99rEncoding settings : -m s -V 4 -q 2 -lowpass 18.6 -b 192
Яндекс.Метрика
Рейтинг@Mail.ru