Бэндслэм / Bandslam (Тодд Графф / Todd Graff) [2009г, драма, комедия, семейный, BDRip-AVC] MVO + DVO Sub (Rus) + Original (Eng)

 

Создавать темы 10-Май-2016 03:45

-Бэндслэм / Bandslam-- Производство: США, Summit Entertainment
Год выпуска: 2009 г.
Жанр: драма, комедия, семейный
Продолжительность: 02:03:26Мировая премьера: 6 августа 2009
Перевод: Профессиональный (многоголосый, закадровый) [Аудио #1]
Перевод 2: Любительский (двухголосый, закадровый) [Аудио #2]
Оригинальный аудиопоток: английскийРежиссер: Тодд Графф / Todd Graff-В ролях: Элисон Мичалка (Charlotte Barnes), Ванесса Энн Хадженс (Sa5m), Гэлан Коннелл (Will Burton), Скотт Портер (Ben Wheatly), Райан Доноху (Basher Martin), Чарли Сэкстон (Bug), Лиза Кудроу (Karen Burton), Тим Джо (Omar), Элви Йост (Irene Lerman, (Cello)), Лиза Чунг (Kim Lee, (Keyboards)), Джонатан Райт (Dylan Dyer, (Glory Dogs Guitar)), Блэр Бомар (Megan)-Описание: По уши влюбленный в музыку Уилл Бартон поступает в новую школу, где есть свои популярные музыкальные группы. На него обращает внимание одна из самых симпатичных и продвинутых девчонок, Шарлотта. Вместе они создают группу и находят свой уникальный стиль. Уилл должен доказать всем, что музыка для него - не просто увлечение. Однажды он получает предложение, которое бывает только раз в жизни, но тут возникают другие проблемы...-
Качество видео: BDRip-AVC
Контейнер: MKV
Видео кодек: MPEG4 AVC
Аудио кодек: AC3
Видео: 1024x436, 2655 kbps, 23,976 fps
Аудио: 48 kHz, AC3, 3/2 (L,C,R,l,r) + LFE ch, ~448 kbps
Аудио #2: 48 kHz, AC3, 2.0 (L,R) ch, ~192 kbps
Аудио #3: 48 kHz, AC3, 3/2 (L,C,R,l,r) + LFE ch, ~448 kbps
Cубтитры: русские, английские

Media Info

Видео
Идентификатор : 1
Формат : AVC
Формат/Информация : Advanced Video Codec
Профиль формата : [email protected]/* */
Параметр CABAC формата : Да
Параметр ReFrames формата : 13 кадров
Идентификатор кодека : V_MPEG4/ISO/AVC
Продолжительность : 1 ч. 51 м.
Битрейт : 2655 Кбит/сек
Ширина : 1024 пикселя
Высота : 436 пикселей
Соотношение сторон : 2,35:1
Режим частоты кадров : Постоянный
Частота кадров : 23,976 (24000/1001) кадра/сек
Цветовое пространство : YUV
Субдискретизация насыщенности : 4:2:0
Битовая глубина : 8 бит
Тип развёртки : Прогрессивная
Бит/(Пиксели*Кадры) : 0.248
Размер потока : 2,01 Гбайт (69%)
Заголовок : Bandslam 2009 x264 BDRip-AVC AC3 Sub tRuAVC
Библиотека кодирования : x264 core 130 r2273kMod b3065e6
Настройки программы : cabac=1 / ref=13 / deblock=1:-2:-1 / analyse=0x3:0 / me=tesa / subme=11 / psy=1 / fade_compensate=0.00 / psy_rd=1.13:0.12 / mixed_ref=1 / me_range=42 / chroma_me=1 / trellis=2 / 8x8dct=1 / cqm=0 / deadzone=21,11 / fast_pskip=0 / chroma_qp_offset=-3 / threads=12 / lookahead_threads=3 / sliced_threads=0 / nr=0 / decimate=0 / interlaced=0 / bluray_compat=0 / constrained_intra=0 / bframes=12 / b_pyramid=2 / b_adapt=2 / b_bias=0 / direct=3 / weightb=1 / open_gop=0 / weightp=2 / keyint=250 / keyint_min=23 / scenecut=40 / intra_refresh=0 / rc=2pass / mbtree=0 / bitrate=2655 / ratetol=1.0 / qcomp=1.00 / qpmin=0 / qpmax=69 / qpstep=4 / cplxblur=20.0 / qblur=0.5 / ip_ratio=1.25 / pb_ratio=1.20 / aq=2:0.80 / zones=153343,160196,q=35
Язык : English
Default : Да
Forced : Нет
Цветовой диапазон : Limited
Коэффициенты матрицы : BT.709Аудио #1
Идентификатор : 2
Формат : AC-3
Формат/Информация : Audio Coding 3
Расширение режима : CM (complete main)
Параметр Endianness формата : Big
Идентификатор кодека : A_AC3
Продолжительность : 1 ч. 51 м.
Вид битрейта : Постоянный
Битрейт : 448 Кбит/сек
Каналы : 6 каналов
Расположение каналов : Front: L C R, Side: L R, LFE
Частота : 48,0 КГц
Частота кадров : 31,250 кадров/сек (1536 spf)
Метод сжатия : С потерями
Размер потока : 357 Мбайт (12%)
Заголовок : 48 kHz, AC3 Audio, 5.1, ~ 448 kbps, MVO (R5)
Язык : Russian
Default : Да
Forced : НетАудио #2
Идентификатор : 3
Формат : AC-3
Формат/Информация : Audio Coding 3
Расширение режима : CM (complete main)
Параметр Endianness формата : Big
Идентификатор кодека : A_AC3
Продолжительность : 1 ч. 51 м.
Вид битрейта : Постоянный
Битрейт : 192 Кбит/сек
Каналы : 2 канала
Расположение каналов : Front: L R
Частота : 48,0 КГц
Частота кадров : 31,250 кадров/сек (1536 spf)
Метод сжатия : С потерями
Размер потока : 153 Мбайт (5%)
Заголовок : 48 kHz, AC3 Audio, 5.1, ~ 448 kbps, DVO
Язык : Russian
Default : Нет
Forced : НетАудио #3
Идентификатор : 4
Формат : AC-3
Формат/Информация : Audio Coding 3
Расширение режима : CM (complete main)
Параметр Endianness формата : Big
Идентификатор кодека : A_AC3
Продолжительность : 1 ч. 51 м.
Вид битрейта : Постоянный
Битрейт : 448 Кбит/сек
Каналы : 6 каналов
Расположение каналов : Front: L C R, Side: L R, LFE
Частота : 48,0 КГц
Частота кадров : 31,250 кадров/сек (1536 spf)
Метод сжатия : С потерями
Размер потока : 357 Мбайт (12%)
Заголовок : 48 kHz, AC3 Audio, 5.1, ~ 448 kbps, Original
Язык : English
Default : Нет
Forced : НетТекст #1
Идентификатор : 5
Формат : UTF-8
Идентификатор кодека : S_TEXT/UTF8
Идентификатор кодека/Информация : UTF-8 Plain Text
Заголовок : SRT, Full
Язык : Russian
Default : Нет
Forced : НетТекст #2
Идентификатор : 6
Формат : UTF-8
Идентификатор кодека : S_TEXT/UTF8
Идентификатор кодека/Информация : UTF-8 Plain Text
Заголовок : SRT, Full
Язык : English
Default : Нет
Forced : Нет

Скриншоты

Яндекс.Метрика
Рейтинг@Mail.ru