А зори здесь тихие... (серии 1-4 из 4) (2015) WEB-DLRip [Расширенная телеверсия]

 

Создавать темы 11-Май-2016 09:27

-А зори здесь тихие... - Производство: Россия / "Интерфест", "Реал-Дакота", "Star Media"
Жанр: драма, военный, история
Режиссер: Ренат Давлетьяров
Актеры: Пётр Фёдоров, Анастасия Микульчина, Женя Малахова, Агния Кузнецова, Софья Лебедева, Кристина Асмус, Екатерина Вилкова, Анатолий Белый, Дарья Мороз, Виктор Проскурин, Максим Дрозд, Наталья Батрак, Илья Алексеев, Валерий Гришко, Евгения Ульянова, Сергей Видинеев, Юлия Силаева, Елена Медведева, Илья Ермолов и др.
Описание:
Май 1942 года. В самый разгар Великой Отечественной войны вдалеке от линии фронта, у забытого богом разъезда, фашисты выбрасывают десант с целью пробраться на Кировскую железную дорогу и Беломорско-Балтийский канал. Это не обычные солдаты-пехотинцы, это опытные, тренированные диверсанты, элита войск СС, «сверхлюди». А против них - старшина Васков и пять девчонок-зенитчиц. Казалось бы, бой местного значения, но на кону - стратегически важная транспортная артерия, соединяющая значимые центры страны. Смогут ли старшина и его хрупкие новобранцы предотвратить нацистскую диверсию, и какой ценой?-Дата мировой премьеры: 30 апреля 2015
Продолжительность: ~00:45:00 серия
Качество видео: WEB-DLRip
Видео: XVID, 720х400 (16:9), ~2000 kbps
Аудио: AC3, 2 ch, 192 kbps, CBR

Mediainfo:

Общее
Полное имя : F:\DOWNLOADS\А зори здесь тихие... (2015) WEB-DLRip\А зори здесь тихие... - 01 серия.avi
Формат : AVI
Формат/Информация : Audio Video Interleave
Размер файла : 699 Мбайт
Продолжительность : 44 м.
Общий поток : 2195 Кбит/сек
Программа кодирования : VirtualDubMod 1.5.10.3 | www.virtualdub-fr.org || (build 2550/release)
Библиотека кодирования : VirtualDubMod build 2550/release
Видео
Идентификатор : 0
Формат : MPEG-4 Visual
Профиль формата : Advanced [email protected]
Параметр BVOP формата : 1
Параметр QPel формата : Нет
Параметр GMC формата : Без точки перехода
Параметр матрицы формата : Выборочная
Идентификатор кодека : XVID
Идентификатор кодека/Подсказка : XviD
Продолжительность : 44 м.
Битрейт : 1993 Кбит/сек
Ширина : 720 пикселей
Высота : 400 пикселей
Соотношение сторон : 16:9
Частота кадров : 25,000 кадров/сек
Цветовое пространство : YUV
Субдискретизация насыщенности : 4:2:0
Битовая глубина : 8 бит
Тип развёртки : Прогрессивная
Метод сжатия : С потерями
Бит/(Пиксели*Кадры) : 0.277
Размер потока : 635 Мбайт (91%)
Библиотека кодирования : XviD 1.2.1 (UTC 2008-12-04)
Аудио
Идентификатор : 1
Формат : AC-3
Формат/Информация : Audio Coding 3
Расширение режима : CM (complete main)
Параметр Endianness формата : Big
Идентификатор кодека : 2000
Продолжительность : 44 м.
Вид битрейта : Постоянный
Битрейт : 192 Кбит/сек
Каналы : 2 канала
Расположение каналов : Front: L R
Частота : 48,0 КГц
Частота кадров : 31,250 кадров/сек (1536 spf)
Метод сжатия : С потерями
Размер потока : 61,2 Мбайт (9%)
Выравнивание : Разделение по промежуткам
Продолжительность промежутка : 40 мс. (1,00 видеокадр)
Время предзагрузки промежутка : 500 мс.
Скриншоты:
Яндекс.Метрика
Рейтинг@Mail.ru