13 часов: Тайные солдаты Бенгази / 13 Hours: The Secret Soldiers of Benghazi (2016) BDRip 1080p | D | Line

 

Создавать темы 29-Май-2016 19:58

Информация о фильме
Название: 13 часов: Тайные солдаты Бенгази
Оригинальное название: 13 Hours: The Secret Soldiers of Benghazi
Год выхода: 2016
Жанр: боевик, триллер, драма, военный
Режиссер: Майкл Бэй
В ролях: Джон Красински, Джеймс Бэдж Дэйл, Пабло Шрайбер, Дэвид Денман, Доминик Фумуса, Макс Мартини, Алексия Бальер, Дэвид Костабайл
О фильме:
2012 год. Бенгази, Ливия. Группа террористов решает «отпраздновать» события 11 сентября нападением на американское посольство. Шестерке бойцов из элитного спецотряда приказано вмешаться только в крайнем случае. Но когда под угрозой десятки жизней, долг и совесть берут верх над субординацией. И мужественные солдаты без колебаний вступают в бой с яростной группировкой боевиков. Бой, который для всех шестерых, скорее всего, станет последним...


Страна: США
Студия: 3 Arts Entertainment, Dune Films, Latina Pictures, Paramount Pictures
Продолжительность: 02:24:29
Перевод: Дублированный (Line)
Рекламы нет
Файл
Кодек: MPEG4 Video (H264)
Качество: BDRip 1080p | Line
Видео: 1920x800, 9300 Kbps, 23.976fps
Звук:
Аудио #1: Русский (АС3, 6 ch, 640 Кбит/с) Дубляж сборка 5.1 by Wety
Аудио #2: Английский (АС3, 6 ch, 640 Кбит/с) Оригинал
Субтитры: Русские (форс), Английские

Доп. инфо

Отсутствует какая либо реклама.
Оригинальная дорожка разложена по каналам, диалоги заменены диалогами из русской аудиодорожки.
Русские субтитры только форсированные на надписи.

Mediainfo

Общее
Уникальный идентификатор : 226175302252354658192712174619579492114 (0xAA27C75AC65CE7F7AAE1C3395655A712)
Полное имя : C:Temp13 Hours_The Secret Soldiers of Benghazi.2016.BDRip.1080p.mkv
Формат : Matroska
Версия формата : Version 2
Размер файла : 10,9 Гбайт
Продолжительность : 2 ч. 24 м.
Общий поток : 10,8 Мбит/сек
Название фильма : 13 Hours_The Secret Soldiers of Benghazi.2016.BDRip.1080p
Дата кодирования : UTC 2016-05-29 11:37:06
Программа кодирования : mkvmerge v4.0.0 ('The Stars were mine') сборка от Jun 6 2010 16:18:42
Библиотека кодирования : libebml v1.0.0 + libmatroska v1.0.0
Видео
Идентификатор : 1
Формат : AVC
Формат/Информация : Advanced Video Codec
Профиль формата : [email protected]
Параметр CABAC формата : Да
Параметр ReFrames формата : 5 кадров
Идентификатор кодека : V_MPEG4/ISO/AVC
Продолжительность : 2 ч. 24 м.
Битрейт : 9300 Кбит/сек
Ширина : 1920 пикселей
Высота : 800 пикселей
Соотношение сторон : 2,40:1
Режим частоты кадров : Постоянный
Частота кадров : 23,976 (24000/1001) кадра/сек
Цветовое пространство : YUV
Субдискретизация насыщенности : 4:2:0
Битовая глубина : 8 бит
Тип развёртки : Прогрессивная
Бит/(Пиксели*Кадры) : 0.253
Размер потока : 9,39 Гбайт (86%)
Библиотека кодирования : x264 core 148 r2692 64f4e24
Настройки программы : cabac=1 / ref=5 / deblock=1:-3:-3 / analyse=0x3:0x133 / me=umh / subme=10 / psy=1 / psy_rd=1.00:0.00 / mixed_ref=1 / me_range=32 / chroma_me=1 / trellis=2 / 8x8dct=1 / cqm=0 / deadzone=21,11 / fast_pskip=1 / chroma_qp_offset=-2 / threads=24 / lookahead_threads=4 / sliced_threads=0 / nr=0 / decimate=1 / interlaced=0 / bluray_compat=0 / constrained_intra=0 / bframes=8 / b_pyramid=2 / b_adapt=2 / b_bias=0 / direct=3 / weightb=1 / open_gop=0 / weightp=2 / keyint=240 / keyint_min=24 / scenecut=40 / intra_refresh=0 / rc_lookahead=60 / rc=crf / mbtree=1 / crf=18.0 / qcomp=0.60 / qpmin=0 / qpmax=69 / qpstep=4 / ip_ratio=1.40 / aq=3:0.80
Язык : English
Default : Нет
Forced : Нет
Цветовой диапазон : Limited
Коэффициенты матрицы : BT.709
Аудио #1
Идентификатор : 2
Формат : AC-3
Формат/Информация : Audio Coding 3
Расширение режима : CM (complete main)
Параметр Endianness формата : Big
Идентификатор кодека : A_AC3
Продолжительность : 2 ч. 24 м.
Вид битрейта : Постоянный
Битрейт : 640 Кбит/сек
Каналы : 6 каналов
Расположение каналов : Front: L C R, Side: L R, LFE
Частота : 48,0 КГц
Частота кадров : 31,250 кадров/сек (1536 spf)
Метод сжатия : С потерями
Размер потока : 661 Мбайт (6%)
Заголовок : DUB Line
Язык : Russian
Default : Да
Forced : Да
Аудио #2
Идентификатор : 3
Формат : AC-3
Формат/Информация : Audio Coding 3
Расширение режима : CM (complete main)
Параметр Endianness формата : Big
Идентификатор кодека : A_AC3
Продолжительность : 2 ч. 24 м.
Вид битрейта : Постоянный
Битрейт : 640 Кбит/сек
Каналы : 6 каналов
Расположение каналов : Front: L C R, Side: L R, LFE
Частота : 48,0 КГц
Частота кадров : 31,250 кадров/сек (1536 spf)
Метод сжатия : С потерями
Размер потока : 661 Мбайт (6%)
Язык : English
Default : Нет
Forced : Нет
Текст #1
Идентификатор : 4
Формат : UTF-8
Идентификатор кодека : S_TEXT/UTF8
Идентификатор кодека/Информация : UTF-8 Plain Text
Заголовок : Forced
Язык : Russian
Default : Да
Forced : Да
Текст #2
Идентификатор : 5
Формат : UTF-8
Идентификатор кодека : S_TEXT/UTF8
Идентификатор кодека/Информация : UTF-8 Plain Text
Заголовок : English
Язык : English
Default : Нет
Forced : Нет
Меню
00:00:00.000 : en:00:00:00.000
00:04:47.662 : en:00:04:47.662
00:09:01.541 : en:00:09:01.541
00:15:31.556 : en:00:15:31.556
00:21:12.229 : en:00:21:12.229
00:26:48.774 : en:00:26:48.774
00:31:22.756 : en:00:31:22.756
00:34:20.058 : en:00:34:20.058
00:39:36.124 : en:00:39:36.124
00:47:12.872 : en:00:47:12.872
00:53:59.027 : en:00:53:59.027
01:02:27.744 : en:01:02:27.744
01:10:03.324 : en:01:10:03.324
01:23:02.477 : en:01:23:02.477
01:27:11.101 : en:01:27:11.101
01:34:50.685 : en:01:34:50.685
01:42:36.359 : en:01:42:36.359
01:48:08.148 : en:01:48:08.148
01:53:47.279 : en:01:53:47.279
02:00:22.882 : en:02:00:22.882
02:07:19.465 : en:02:07:19.465
02:18:25.422 : en:02:18:25.422

Скриншоты

Яндекс.Метрика
Рейтинг@Mail.ru