Камера 211 / Celda 211 (Даниэль Монсон / Daniel Monzón) [2009 г., Боевик, экранизация, криминальная драма, BDRip] Dub [МОСФИЛЬМ-мастер 2010 / Лицензия]

 

Создавать темы 18-Июн-2016 03:13

-Камера 211 / Celda 211-- Производство: Испания, Франция, La Fabrique 2, La Fabrique de Films, Morena Films S.L., Telecinco Cinema, Vaca Films, ...
Год выпуска: 2009 г.
Жанр: Боевик, экранизация, криминальная драма
Продолжительность: 01:47:52Мировая премьера: 4 сентября 2009
Российская премьера: 4 марта 2010, «Люксор»
Дата выхода DVD: 25 марта 2010, «Columbia/Sony»
Перевод: Профессиональный (полное дублирование) [МОСФИЛЬМ-мастер 2010 / Лицензия]
Режиссер: Даниэль Монсон / Daniel Monzón-В ролях: Карлос Бардем /Carlos Bardem/, Луис Тосар /Luis Tosar/, Альберто Эмманн /Alberto Ammann/, Марта Этура /Marta Etura/, Антонио Ресинес /Antonio Resines/, Луис Захэра /Luis Zahera/, Феликс Куберо /Félix Cubero/, Маноло Соло /Manolo Solo/, Хоксеан Бенгоэтксеа /Joxean Bengoetxea/, Жезуш Карроза /Jesús Carroza/...
Роли дублировали: Алексей Горбунов, Василий Дахненко, Леонид Белозорович, Игорь Старосельцев, Михаил Георгиу, ...-Описание: Хуан — полицейский, пришел наниматься надзирателем в тюрьму. Знакомство с новым рабочим местом оказалось роковым. Он попал в переделку, и ему пришлось прикинуться заключенным, чтобы спасти свою жизнь. Этот шаг поставил его на тонкую грань выживаемости.-
Качество видео: BDRip
Контейнер: AVI
Видео кодек: XviD
Аудио кодек: MP3
Видео: 704x384 (1.83:1), 25 fps, XviD build 50 ~850 kbps avg, 0.13 bit/pixel
Аудио: 44.100 kHz, MPEG Layer 3, 2 ch, ~108.47 kbps avg
Cубтитры: отсутствуют

Доп. информация

Фильм снят по мотивам романа Франсиско Переса Гандуля «Камера 211» (Celda 211, 2004).

Награды

Европейская киноакадемия, 2010 год
Номинации (2):
Лучшая мужская роль (Луис Тосар)
Лучшая работа сценариста (Хорхе Геррикаэчеварриа, Даниэль Монсон)
Гойя, 2010 год
Победитель (8):
Лучший фильм
Лучший актер-дебютант ( Альберто Амман )
Лучшая мужская роль ( Луис Тосар )
Лучшая женская роль второго плана ( Марта Этура )
Лучший режиссер ( Даниэль Монсон )
Лучший адаптированный сценарий
Лучший звук
Лучший монтаж
Номинации (8):
Лучшая мужская роль второго плана (Антонио Ресинес)
Лучшая мужская роль второго плана (Карлос Бардем)
Лучшая работа оператора
Лучшие спецэффекты
Лучший оригинальный саундтрек
Лучшая работа художника-постановщика
Лучшее руководство производством
Лучший грим/причёски

Рецензия

На чьей ты стороне?Фильм меня заинтересовал высокой оценкой на «Кинопоиске»(спасибо!). Обычно я смотрю фильмы изданные в США. То ли это стереотип, то ли из-за Хэппи Эндов, но все же порой из-за этого пропускаю те немногие шедевры, каким является«Камера 211».Сюжет казалось бы понятен и прост.Главный герой Хуан Оливер(Альберто Амман)приходит устраиваться на работу на день раньше, дабы понравиться новым коллегам и узнать что к чему. У него беременная жена, честность в глазах и огромное желание отдать всю свою жизнь служению в тюрьме.Второй главный герой Маламадре(Луис Тосар)матерый убийца из одиночной камеры. у него стальные мускулы, зверский взгляд и задатки лидера.И тут сидишь и думаешь:«Ну, вот, все понятно. Сейчас хороший будет побеждать плохого. Будут драки в стиле «Кий-Йа`и вообще нереальное мочилово»Ничего подобного.Маламадре поднимает тюремный бунт, в результате которого Хуан Оливер оказывается запертым в камере 211 посреди всей заварухи. И чтобы выжить, ему приходится притворяться преступником.Фильм не отпускает. Кажется, что вот-вот его раскроют и будет предсказуемый конец. Но нет, снова ты не не угадал.Психологически «Камера 211» напоминает наш «Контракт со смертью»(1998).И там, и здесь описывается реальное отношение общества к тюремным заключенным,«людям второго сорта».А, действительно. Имеет ли право человек переступивший грань закона на хорошее к себе обращение?Человек без свободы и права становится зверем, зверем в клетке.Вы когда-нибудь были в зоопарке?Видели ли вы льва, сидящего в клетке изо дня в день?Ему и вправду нечего терять.(подобное высказывание было в фильме «Три икса»(2002)).Именно это и предстоит Хуану Оливеру. Побывать в звериной шкуре. Понять на чьей он стороне.P.S. Лично я так и не смогла выбрать сторону.10 из 10Определённо.

Media Info

Общее
Полное имя : J:\Камера 211\Kamea.211.[pirat.ca].avi
Формат : AVI
Формат/Информация : Audio Video Interleave
Размер файла : 750 Мбайт
Продолжительность : 1 ч. 47 м.
Режим общего битрейта : Переменный
Общий поток : 972 Кбит/сек
Название фильма : Kamea.211.[pirat.ca]
Программа кодирования : VirtualDubMod 1.5.10.3 | www.virtualdub-fr.org || (build 2550/release)Видео
Идентификатор : 0
Формат : MPEG-4 Visual
Профиль формата : Advanced [email protected]/* */
Параметр BVOP формата : 1
Параметр QPel формата : Нет
Параметр GMC формата : Без точки перехода
Параметр матрицы формата : Default (MPEG)
Идентификатор кодека : XVID
Идентификатор кодека/Подсказка : XviD
Продолжительность : 1 ч. 47 м.
Битрейт : 851 Кбит/сек
Ширина : 704 пикселя
Высота : 384 пикселя
Соотношение сторон : 1,85:1
Частота кадров : 25,000 кадров/сек
Цветовое пространство : YUV
Субдискретизация насыщенности : 4:2:0
Битовая глубина : 8 бит
Тип развёртки : Прогрессивная
Метод сжатия : С потерями
Бит/(Пиксели*Кадры) : 0.126
Размер потока : 657 Мбайт (88%)
Библиотека кодирования : XviD 1.2.1 (UTC 2008-12-04)Аудио
Идентификатор : 1
Формат : MPEG Audio
Версия формата : Version 1
Профиль формата : Layer 3
Режим : Joint stereo
Расширение режима : MS Stereo
Идентификатор кодека : 55
Идентификатор кодека/Подсказка : MP3
Продолжительность : 1 ч. 47 м.
Вид битрейта : Переменный
Битрейт : 112 Кбит/сек
Каналы : 2 канала
Частота : 44,1 КГц
Метод сжатия : С потерями
Размер потока : 83,7 Мбайт (11%)
Выравнивание : Соединение по промежуткам
Продолжительность промежутка : 26 мс. (0,65 видеокадр)
Время предзагрузки промежутка : 496 мс.
Библиотека кодирования : LAME3.99r
Настройки программы : -m j -V 4 -q 2 -lowpass 15.6 --abr 112

Скриншот c названием фильма

Скриншоты

Трейлер
Яндекс.Метрика
Рейтинг@Mail.ru