[ Сегодня на трекере фрилич! Идет свободное скачивание без начисления Download ]

Перекресток / Crossroads (Уолтер Хилл / Walter Hill) [1986 г., Драма, музыка, мистика, роман, HDTVRip] MVO

 

Создавать темы 18-Июн-2016 03:21

-Перекресток / Crossroads-- Год выпуска: 1986
Страна: США
Жанр: Драма, музыка, мистика, роман
Продолжительность: 01:38:49
Перевод: Профессиональный (многоголосый, закадровый)
Русские субтитры: нет-Режиссер: Уолтер Хилл / Walter Hill-В ролях: Джон Хэнкок / John Hancock, Ралф Маккио / Ralph Macchio, Деннис Липском / Dennis Lipscomb, Джо Мортон / Joe Morton, Хэрри Кэри-младший / Harry Carey Jr., Джо Сенека / Joe Seneca, Джэми Гертц / Jami Gertz, Роберт Джадд / Robert Judd, Стив Вай / Steve Vai-Описание: Молодое музыкальное дарование Юджин мечтает о том, что однажды он станет знаменитым блюзовым гитаристом. Единственный, кто может помочь ему в этом, — легенда блюза Вилли Браун. Так, сам того не подозревая, Юджин становится частью плана старого гитариста по возвращению своей души, проданной когда-то дьяволу за талант музыканта…- -Качество: HDTVRip
Формат: AVI
Видео кодек: XviD
Аудио кодек: AC-3
Видео: 720x400, 23,976 кадра/сек, 1716 Kbps
Аудио: AC-3, 384 Кбит/сек, 6 каналов, Front: L C R, Side: L R, LFE, 48,0 КГц, 16 бит-

Медиаинфо

Общее
Полное имя : Перекресток - Crossroads (1986) HDTVRip.avi
Формат : AVI
Формат/Информация : Audio Video Interleave
Размер файла : 1,46 Гбайт
Продолжительность : 1 ч. 38 м.
Общий поток : 2109 Кбит/сек
Название фильма : Перекресток - Crossroads (1986) HDTVRip
Режиссёр : Уолтер Хилл / Walter Hill
Жанр : Drama/Music/Roman
Программа кодирования : VirtualDubMod 1.5.10.3 | www.virtualdub-fr.org || (build 2550/release)
Формат оригинала/Имя : Movie
Примечание : http://pirat.caВидео
Идентификатор : 0
Формат : MPEG-4 Visual
Профиль формата : Advanced [email protected]/* */
Параметр BVOP формата : 2
Параметр QPel формата : Нет
Параметр GMC формата : Без точки перехода
Параметр матрицы формата : Default (MPEG)
Идентификатор кодека : XVID
Идентификатор кодека/Подсказка : XviD
Продолжительность : 1 ч. 38 м.
Битрейт : 1716 Кбит/сек
Ширина : 720 пикселей
Высота : 400 пикселей
Соотношение сторон : 16:9
Частота кадров : 23,976 кадра/сек
Цветовое пространство : YUV
Субдискретизация насыщенности : 4:2:0
Битовая глубина : 8 бит
Тип развёртки : Прогрессивная
Метод сжатия : С потерями
Бит/(Пиксели*Кадры) : 0.248
Размер потока : 1,18 Гбайт (81%)
Библиотека кодирования : XviD 1.2.0.dev47 (UTC 2006-11-01)Аудио
Идентификатор : 1
Формат : AC-3
Формат/Информация : Audio Coding 3
Расширение режима : CM (complete main)
Параметр Endianness формата : Big
Идентификатор кодека : 2000
Продолжительность : 1 ч. 38 м.
Вид битрейта : Постоянный
Битрейт : 384 Кбит/сек
Каналы : 6 каналов
Расположение каналов : Front: L C R, Side: L R, LFE
Частота : 48,0 КГц
Битовая глубина : 16 бит
Метод сжатия : С потерями
Размер потока : 271 Мбайт (18%)
Выравнивание : Разделение по промежуткам
Продолжительность промежутка : 42 мс. (1,00 видеокадр)
Время предзагрузки промежутка : 500 мс.
-

Скриншоты

-
Яндекс.Метрика
Рейтинг@Mail.ru