Ведьма / The VVitch: A New-England Folktale (2015) HDRip- AVC | D

 

Создавать темы 19-Июн-2016 23:09

Информация о фильме
Название: Ведьма
Оригинальное название: The VVitch: A New-England Folktale
Год выхода: 2015
Жанр: ужасы, детектив
Режиссер: Роберт Эггерс
В ролях: Аня Тейлор-Джой, Ралф Айнесон, Кейт Дики, Харви Скримшо, Элли Грэйнджер, Лукас Доусон, Батшеба Гарнетт, Сара Стефенс, Джулиан Ричингс, Вахаб Каудхри
Слоган: «Cказка Новой Англии»
О фильме: Семья колонистов покидает плантацию, чтобы жить на уединенной ферме рядом с лесом в Новой Англии. Но вскоре младший ребёнок, ещё младенец, исчезает.

Страна: США, Великобритания, Канада, Бразилия / Code Red Productions, Maiden Voyage Pictures, Mott Street Pictures, Parts and Labor
Продолжительность: 01:32:26
Перевод: Дублированный
Файл
Качество: HDRip- AVC
Формат: MKV
Видео: AVC, 2500 Kb/s, 952x576
Звук: Russian: AC3, 192 Kb/s (2ch), English: AC3, 384 Kb/s (6 ch)
Субтитры: Russian, English
Дополнительно: Сохранены оригинальные чаптеры

MediaInfo:

General
Unique ID : 171622478705437809751705965234163319780 (0x811D497E8688FEDC8731DDB6B11083E4)
Complete name : H:ДИСК1.ФИЛЬМЫВедьма The VVitch A New-England Folktale (2015)The.VVitch.A.New.England.Folktale.2015.HDRip.AVC.mkv
Format : Matroska
Format version : Version 4 / Version 2
File size : 1.99 GiB
Duration : 1h 32mn
Overall bit rate : 3 078 Kbps
Movie name : Release by basma4i
Encoded date : UTC 2016-06-19 09:35:49
Writing application : mkvmerge v8.2.0 ('World of Adventure') 64bit
Writing library : Lavf57.25.100
ENCODING_INFO : MATROSKA,WEBM > MKV / H264 > X264 VBR-2P 2500kbps Произвольный / AC3 > AC3 CBR 192kbps / DTS > AC3 CBR 384kbps
Video
ID : 1
Format : AVC
Format/Info : Advanced Video Codec
Format profile : [email protected]
Format settings, CABAC : Yes
Format settings, ReFrames : 11 frames
Codec ID : V_MPEG4/ISO/AVC
Bit rate : 2 500 Kbps
Width : 952 pixels
Height : 576 pixels
Display aspect ratio : 5:3
Original display aspect ratio : 5:3
Frame rate mode : Variable
Original frame rate : 23.976 fps
Color space : YUV
Chroma subsampling : 4:2:0
Bit depth : 8 bits
Scan type : Progressive
Bits/(Pixel*Frame) : 0.190
Writing library : x264 core 148 r2705M 3f5ed56
Encoding settings : cabac=1 / ref=11 / deblock=1:-3:-3 / analyse=0x3:0x133 / me=umh / subme=11 / psy=1 / psy_rd=1.00:0.20 / mixed_ref=1 / me_range=32 / chroma_me=1 / trellis=2 / 8x8dct=1 / cqm=0 / deadzone=21,11 / fast_pskip=1 / chroma_qp_offset=-3 / threads=10 / lookahead_threads=2 / sliced_threads=0 / nr=0 / decimate=1 / interlaced=0 / bluray_compat=0 / constrained_intra=0 / bframes=10 / b_pyramid=2 / b_adapt=2 / b_bias=0 / direct=3 / weightb=1 / open_gop=0 / weightp=2 / keyint=230 / keyint_min=23 / scenecut=40 / intra_refresh=0 / rc_lookahead=40 / rc=2pass / mbtree=1 / bitrate=2500 / ratetol=1.0 / qcomp=0.60 / qpmin=0 / qpmax=69 / qpstep=4 / cplxblur=20.0 / qblur=0.5 / ip_ratio=1.40 / aq=1:1.00
Language : English
Default : Yes
Forced : No
Color range : Limited
Matrix coefficients : BT.709
ENCODING_INFO : x264 - core 148 r2665+53 6629127 t_mod_Custom [[email protected] X86_64] - H.264/MPEG-4 AVC codec - Copyleft 2003-2015 - http://www.videolan.org/x264.html - options: cabac=1 ref=9 deblock=1:-3:-3 analyse=0x3:0x133 me=umh subme=11 psy=1 fade_compensate=0.00 psy_rd=1.10:0.00 mixed_ref=1 me_range=32 chroma_me=1 trellis=2 8x8dct=1 cqm=0 deadzone=21,11 fast_pskip=0 chroma_qp_offset=-2 threads=16 lookahead_threads=4 sliced_threads=0 nr=0 decimate=0 interlaced=0 bluray_compat=0 constrained_intra=0 fgo=0 bframes=11 b_pyramid=2 b_adapt=2 b_bias=0 direct=3 weightb=1 open_gop=0 weightp=2 keyint=250 keyint_min=23 scenecut=40 intra_refresh=0 rc_lookahead=150 rc=crf mbtree=0 crf=16.5000 qcomp=0.70 qpmin=0:0:0 qpmax=69:69:69 qpstep=4 vbv_maxrate=50000 vbv_bufsize=62500 crf_max=0.0 nal_hrd=none filler=0 ip_ratio=1.20 pb_ratio=1.10 aq=3:0.65 aq-sensitivity=10.00 aq-factor=1.00:1.00:1.00 aq2=0 aq3=0
DURATION : 01:32:26.588000000
NUMBER_OF_FRAMES : 132985
NUMBER_OF_BYTES : 1733032013
_STATISTICS_WRITING_APP : mkvmerge v8.2.0 ('World of Adventure') 64bit
_STATISTICS_WRITING_DATE_UTC : 2016-06-19 09:35:49
_STATISTICS_TAGS : BPS DURATION NUMBER_OF_FRAMES NUMBER_OF_BYTES
Audio #1
ID : 2
Format : AC-3
Format/Info : Audio Coding 3
Mode extension : CM (complete main)
Format settings, Endianness : Big
Codec ID : A_AC3
Duration : 1h 32mn
Bit rate mode : Constant
Bit rate : 192 Kbps
Channel(s) : 2 channels
Channel positions : Front: L R
Sampling rate : 48.0 KHz
Compression mode : Lossy
Stream size : 127 MiB (6%)
Language : Russian
Default : Yes
Forced : No
DURATION : 01:32:26.560000000
NUMBER_OF_FRAMES : 173330
NUMBER_OF_BYTES : 133117440
_STATISTICS_WRITING_APP : mkvmerge v8.2.0 ('World of Adventure') 64bit
_STATISTICS_WRITING_DATE_UTC : 2016-06-19 09:35:49
_STATISTICS_TAGS : BPS DURATION NUMBER_OF_FRAMES NUMBER_OF_BYTES
Audio #2
ID : 3
Format : AC-3
Format/Info : Audio Coding 3
Mode extension : CM (complete main)
Format settings, Endianness : Big
Codec ID : A_AC3
Duration : 1h 32mn
Bit rate mode : Constant
Bit rate : 384 Kbps
Channel(s) : 6 channels
Channel positions : Front: L C R, Side: L R, LFE
Sampling rate : 48.0 KHz
Compression mode : Lossy
Stream size : 254 MiB (12%)
Title : Original
Language : English
Default : No
Forced : No
DURATION : 01:32:26.592000000
NUMBER_OF_FRAMES : 173331
NUMBER_OF_BYTES : 266236416
_STATISTICS_WRITING_APP : mkvmerge v8.2.0 ('World of Adventure') 64bit
_STATISTICS_WRITING_DATE_UTC : 2016-06-19 09:35:49
_STATISTICS_TAGS : BPS DURATION NUMBER_OF_FRAMES NUMBER_OF_BYTES
Text #1
ID : 4
Format : UTF-8
Codec ID : S_TEXT/UTF8
Codec ID/Info : UTF-8 Plain Text
Language : Russian
Default : Yes
Forced : No
DURATION : 01:25:04.833000000
NUMBER_OF_FRAMES : 786
NUMBER_OF_BYTES : 37861
_STATISTICS_WRITING_APP : mkvmerge v8.2.0 ('World of Adventure') 64bit
_STATISTICS_WRITING_DATE_UTC : 2016-06-19 09:35:49
_STATISTICS_TAGS : BPS DURATION NUMBER_OF_FRAMES NUMBER_OF_BYTES
Text #2
ID : 5
Format : UTF-8
Codec ID : S_TEXT/UTF8
Codec ID/Info : UTF-8 Plain Text
Language : English
Default : No
Forced : No
DURATION : 01:24:07.291000000
NUMBER_OF_FRAMES : 814
NUMBER_OF_BYTES : 25596
_STATISTICS_WRITING_APP : mkvmerge v8.2.0 ('World of Adventure') 64bit
_STATISTICS_WRITING_DATE_UTC : 2016-06-19 09:35:49
_STATISTICS_TAGS : BPS DURATION NUMBER_OF_FRAMES NUMBER_OF_BYTES
Text #3
ID : 6
Format : UTF-8
Codec ID : S_TEXT/UTF8
Codec ID/Info : UTF-8 Plain Text
Title : SDH
Language : English
Default : No
Forced : No
DURATION : 01:27:22.570000000
NUMBER_OF_FRAMES : 953
NUMBER_OF_BYTES : 28371
_STATISTICS_WRITING_APP : mkvmerge v8.2.0 ('World of Adventure') 64bit
_STATISTICS_WRITING_DATE_UTC : 2016-06-19 09:35:49
_STATISTICS_TAGS : BPS DURATION NUMBER_OF_FRAMES NUMBER_OF_BYTES
Menu
00:00:00.000 : :Chapter 01
00:04:44.159 : :Chapter 02
00:13:12.333 : :Chapter 03
00:18:51.672 : :Chapter 04
00:26:40.432 : :Chapter 05
00:29:47.869 : :Chapter 06
00:37:11.145 : :Chapter 07
00:42:09.068 : :Chapter 08
00:48:23.817 : :Chapter 09
00:53:23.867 : :Chapter 10
01:00:36.049 : :Chapter 11
01:04:13.558 : :Chapter 12
01:10:27.430 : :Chapter 13
01:13:55.431 : :Chapter 14
01:20:42.045 : :Chapter 15
01:25:14.901 : :Chapter 16

Скриншоты

Яндекс.Метрика
Рейтинг@Mail.ru