Анестезия / Anesthesia (Тим Блейк Нельсон / Tim Blake Nelson) [2015 г., триллер, драма, HDRip] DVO [Parovoz Production]

 

Создавать темы 27-Июн-2016 05:05

-Анестезия / Anesthesia-- Производство: США, Grand Schema, Hello Please, Nicholson International Pictures, Red Barn Films
Год выпуска: 2015 г.
Жанр: триллер, драма
Продолжительность: 01:29:39Мировая премьера: 22 апреля 2015
Перевод: Любительский (двухголосый, закадровый) [Parovoz Production]
Режиссер: Тим Блейк Нельсон / Tim Blake Nelson-В ролях: Сэм Уотерстон, Кристен Стюарт, Кори Столл, Гретхен Мол, Тим Блэйк Нельсон, Гленн Клоуз, К. Тодд Фриман, Джессика Хехт, Бен Конигсберг, Ханна Маркс-Описание: В результате нападения на профессора философии Колумбийского университета пересекаются жизни нескольких людей…-
Качество видео: HDRip
Контейнер: AVI
Видео кодек: XviD
Аудио кодек: MP3
Видео: 688x368 (1.87:1), 23.976 fps, XviD build 73 ~1023 kbps avg, 0.17 bit/pixel
Аудио: 48 kHz, MPEG Layer 3, 2 ch, ~128.00 kbps avg
Cубтитры: отсутствуют

Рецензия

О поступках и решенияхВ картине рассказывается о жизни совершенно разных людей, никак между собой не знакомых и не связанных друг с другом. Но в концовке трагедия, связанная с одним из них, приведет к тому что жизненные ниточки каждого из героя ленты соприкоснуться и образуют один тугой узелок жизни.Фильм медитативный, неспешный, напрочь отсутствует динамика и он совершенно небогат на события, лишь в конце картина заставит хорошенько встряхнуться зрителя и не слабо так оторопеть от увиденной драматической концовки.Конец картины оставит зрителя в подвешенном состоянии, трагедия не отпустит после себя еще долго, вновь и вновь она будет наталкивать на различные размышления о поступках, делах, жизни героев ленты, картина которая заставит переосмыслить поведение героев и дать волю фантазии, что если они поступили бы в том или ином случае по другому и трагической развязки можно было бы избежать.Режиссер Тим Блейк Нельсон снял очень насыщенную ленту в плане диалогов. Он снял жизненную драму, которая оставляет достаточно тяжелое послевкусие и не все, наверное, смогут оценить ее по достоинству, но равнодушных лента оставить не должна. Картина затрагивает многие моменты нашей жизни, ситуации в которой многие могут примерить на себе лично.Лента сделана в авторском, жанровом стиле. Задумка о соединении, в конце ленты, незнакомых людей сама по себе не нова, оригинальности ждать не приходится. Сила этого фильма в другом. Используя проторенные приемы режиссер, в своем авторском стиле, доносит до зрителя все самое главное и нужное, задуманное им. А именно то что любые наши поступки, хорошие или плохие, так или иначе в будущем проецируют различные ситуации, они накладывают отпечаток на нашу будущую жизнь. Тим Блейк Нельсон, на фоне различных и неприметных сюжетных линий, показал трагическое последствие поступков и решений главных героев ленты. Которые на первый взгляд вроде бы ничем таким плохим не выглядят. Но после трагедии приобретающие совершенно другой оттенок.7 из 10

Media Info

Общее
Полное имя : D:\D\Анестезия\Anesthesia.2015.HDRip.[pirat.ca].avi
Формат : AVI
Формат/Информация : Audio Video Interleave
Размер файла : 744 Мбайт
Продолжительность : 1 ч. 29 м.
Общий поток : 1161 Кбит/сек
Название фильма : Anesthesia.2015.HDRip.[pirat.ca]
Программа кодирования : VirtualDubMod 1.5.10.3 | www.virtualdub-fr.org || (build 2550/release)Видео
Идентификатор : 0
Формат : MPEG-4 Visual
Профиль формата : Advanced [email protected]/* */
Параметр BVOP формата : 1
Параметр QPel формата : Нет
Параметр GMC формата : Без точки перехода
Параметр матрицы формата : Выборочная
Идентификатор кодека : XVID
Идентификатор кодека/Подсказка : XviD
Продолжительность : 1 ч. 29 м.
Битрейт : 1023 Кбит/сек
Ширина : 688 пикселей
Высота : 368 пикселей
Соотношение сторон : 1,85:1
Частота кадров : 23,976 (23976/1000) кадра/сек
Цветовое пространство : YUV
Субдискретизация насыщенности : 4:2:0
Битовая глубина : 8 бит
Тип развёртки : Прогрессивная
Метод сжатия : С потерями
Бит/(Пиксели*Кадры) : 0.169
Размер потока : 656 Мбайт (88%)
Библиотека кодирования : XviD 73Аудио
Идентификатор : 1
Формат : MPEG Audio
Версия формата : Version 1
Профиль формата : Layer 3
Идентификатор кодека : 55
Идентификатор кодека/Подсказка : MP3
Продолжительность : 1 ч. 29 м.
Вид битрейта : Постоянный
Битрейт : 128 Кбит/сек
Каналы : 2 канала
Частота : 48,0 КГц
Метод сжатия : С потерями
Размер потока : 82,1 Мбайт (11%)
Выравнивание : Соединение по промежуткам
Продолжительность промежутка : 42 мс. (1,00 видеокадр)
Время предзагрузки промежутка : 504 мс.
Библиотека кодирования : LAME3.99r
Настройки программы : -m s -V 4 -q 2 -lowpass 17 -b 128

Скриншот c названием фильма

Скриншоты

Трейлер
Яндекс.Метрика
Рейтинг@Mail.ru