Двое во вселенной / Переписка / La corrispondenza (Джузеппе Торнаторе / Giuseppe Tornatore) [2016 г., драма, мелодрама, HDRip] Dub [Line]

 

Создавать темы 28-Июн-2016 04:54

-Двое во вселенной / Переписка / La corrispondenza-- Производство: Италия, Business Location Sudtirol Alto Adige, Film Commission Torino-Piemonte, Ministero per i Beni e le Attività Culturali, Paco Cinematografica S.r.l., Rai Cinema, Trentino Film Commission
Год выпуска: 2016 г.
Жанр: драма, мелодрама
Продолжительность: 02:02:07Мировая премьера: 14 января 2016
Российская премьера: 5 мая 2016, «Экспонента»
Перевод: Профессиональный (полное дублирование) [МОСФИЛЬМ]
Режиссер: Джузеппе Торнаторе / Giuseppe Tornatore-В ролях: Джереми Айронс, Ольга Куриленко, Саймон Джонс, Джим Уоррен, Шона МакДональд, Паоло Калабрези, Оскар Сандерс, Анна Савва, Ирина Кара, Сэмми Морено, ...
оли дублировалиР: Игорь Тарадайкин, Татьяна Шитова, Иван Калинин, Диомид Виноградов, Елена Ивасишина, ...-Описание: Эд и Эми — ученый и студентка, изучающие теорию струн и космических двойников, вселенную и параллельные измерения. Они — родственные души, созданные друг для друга. Их любовь не знает границ и расстояний. Но внезапно Эд исчезает. И все, что у нее остается — это регулярно приходящие от него послания. В какую игру втягивают Эми? Эксперимент ученого, решившего скрыться от мира? Или игру высших сил, посылающих ей любимого в чужих обличьях? Или она продолжает видеть свет погасшей звезды?-
Качество видео: HDRip
Контейнер: AVI
Видео кодек: XviD
Аудио кодек: MP3
Видео: 688x288 (2.39:1), 23.976 fps, XviD build 73 ~721 kbps avg, 0.15 bit/pixel
Аудио: 48 kHz, MPEG Layer 3, 2 ch, ~128.00 kbps avg
Cубтитры: отсутствуют

Рецензия

Двое во вселенной, или вселенная для двоихКинокартина «Двое во вселенной», оригинальное название которой «La corrispondenza» («Переписка») — это восхитительно красивая история любви, созданная не менее восхитительным итальянцем Джузеппе Торнаторе. На этом данную рецензию можно было бы и закончить. Но вы все же спросите, чем же так примечательна именно эта история любви. Вы также можете сказать, что это всего лишь наивная сказка из разряда «и даже смерть не разлучит их». Так и есть. Но именно в этом кроется все ее очарование. Настолько реалистично показана эта утопическая любовь студентки Эми и профессора Эда, показаны чувства, которым не страшна даже смерть. И это до невозможности актуально, так как, увы, в мире в котором мы живем, для любви двоих разрушительно даже расстояние в несколько сот километров. А такие эпитеты к слову любовь, как «вечная», «бесконечная», «бессмертная» и множество других всего лишь остаются словами. Что еще привлекает в этом фильме, так это ярчайший контраст той радости, счастья, безумия, которые испытывают эти люди в любви и всепоглощающей боли, которая остается после… Именно за это стоит отметить талант актеров, Ольги Куриленко и Джереми Айронса. Должна признаться, что до этого фильма абсолютно не воспринимала Ольгу Куриленко, как серьезную, лирическую актрису, но после «Переписки», для меня она перешла из группы «девушек Бонда» к более серьезной категории. Неоспоримыми достоинствами данного фильма также являются завораживающая музыка Эннио Морриконе и пейзажи прекрасной Италии.Сразу скажу, многим этот фильм вряд ли понравиться. Да и сама я нашла некоторые недостатки. Во-первых, сама идея фильма, все эти письма, подарки, сюрпризы идентично повторяет идею фильма «P.S. Я люблю тебя» Ричарда ЛаГравенес, хотя и в более интересной, свежей подаче. Во-вторых, немного страшит нынешняя мода романтизации смерти. Может ли смерть одного из любовников быть романтичной и может ли она таить в себе романтику, как таковая? Решать вам. И в-третьих, немного раздражает привычка создателей большинства фильмов сделать загадку и интригу из прошлого одно из главных героев. Все эти автокатастрофы, неблагополучное детство, напряженные отношения с родителями и т. д. направлены на то, чтобы сделать сюжет интереснее и живее. Но, увы, в этом фильме подобная «шарада» была откровенно лишней.Что же, в итоге мы имеем красивый, чувственный, хотя и достаточно тривиальный фильм, который обязательно найдет «своего» зрителя.

Media Info

Общее
Полное имя : J:\Двое во вселенной\Dvoe vo vselennoj.2016.D.HDRip.[pirat.ca].avi
Формат : AVI
Формат/Информация : Audio Video Interleave
Размер файла : 751 Мбайт
Продолжительность : 2 ч. 2 м.
Общий поток : 859 Кбит/сек
Название фильма : Dvoe vo vselennoj.2016.D.HDRip.[pirat.ca]
Программа кодирования : VirtualDubMod 1.5.10.3 | www.virtualdub-fr.org || (build 2550/release)Видео
Идентификатор : 0
Формат : MPEG-4 Visual
Профиль формата : Advanced [email protected]/* */
Параметр BVOP формата : 1
Параметр QPel формата : Нет
Параметр GMC формата : Без точки перехода
Параметр матрицы формата : Выборочная
Идентификатор кодека : XVID
Идентификатор кодека/Подсказка : XviD
Продолжительность : 2 ч. 2 м.
Битрейт : 722 Кбит/сек
Ширина : 688 пикселей
Высота : 288 пикселей
Соотношение сторон : 2,40:1
Частота кадров : 23,976 (23976/1000) кадра/сек
Цветовое пространство : YUV
Субдискретизация насыщенности : 4:2:0
Битовая глубина : 8 бит
Тип развёртки : Прогрессивная
Метод сжатия : С потерями
Бит/(Пиксели*Кадры) : 0.152
Размер потока : 631 Мбайт (84%)
Библиотека кодирования : XviD 73Аудио
Идентификатор : 1
Формат : MPEG Audio
Версия формата : Version 1
Профиль формата : Layer 3
Идентификатор кодека : 55
Идентификатор кодека/Подсказка : MP3
Продолжительность : 2 ч. 2 м.
Вид битрейта : Постоянный
Битрейт : 128 Кбит/сек
Каналы : 2 канала
Частота : 48,0 КГц
Метод сжатия : С потерями
Размер потока : 112 Мбайт (15%)
Выравнивание : Соединение по промежуткам
Продолжительность промежутка : 42 мс. (1,00 видеокадр)
Время предзагрузки промежутка : 504 мс.
Библиотека кодирования : LAME3.99r
Настройки программы : -m s -V 4 -q 2 -lowpass 17 -b 128

Скриншот c названием фильма

Скриншоты

-
Трейлер
Яндекс.Метрика
Рейтинг@Mail.ru