Def Leppard - Man Enough [2016 г.] (Hard Rock) [TVRip, 720p]

 

Создавать темы 02-Июл-2016 05:03

-Def Leppard - Man Enough-- Год выпуска: 2016 г.
Страна: UK
Жанр: Hard Rock
Продолжительность: 03:56-Качество видео: DVDRip
Контейнер: MKV
Стандарт разрешения: 720p
Видео кодек: MPEG4 AVC
Аудио кодек: MP3
Видео: : 1 280 pixels x 544 pixels : 2 313 Kbps : 29.970 fps :
Аудио: : 247 Kbps : 2 channels : 44.1 KHz :-

Media Info

General
UniqueID : 204989965730188584441671548104552470210 (0x9A37A19ED5918B5583F16EE5B1B3D6C2)
Complete name : H:\Def Leppard - Man Enough - 2016\Def_Leppard-Man_Enough-ddc-720p-x264-2016.mkv
Format : Matroska
File size : 73.6 MiB
Duration : 3mn 56s
Overall bit rate : 2 612 Kbps
Encoded date : UTC 2016-06-28 18:20:03
Writing application : mkvmerge v9.2.0 ('Photograph') 32bit
Writing library : libebml v1.3.3 + libmatroska v1.4.4Video
ID : 1
Format : AVC
Format/Info : Advanced Video Codec
Format profile : [email protected]/* */
Format settings, CABAC : Yes
Format settings, ReFrames : 5 frames
Format settings, GOP : M=4, N=16
Codec ID : V_MPEG4/ISO/AVC
Duration : 3mn 56s
Bit rate : 2 313 Kbps
Width : 1 280 pixels
Height : 544 pixels
Display aspect ratio : 2.35:1
Frame rate : 29.970 fps
Color space : YUV
Chroma subsampling : 4:2:0
Bit depth : 8 bits
Scan type : Progressive
Bits/(Pixel*Frame) : 0.111
Stream size : 65.2 MiB (89%)
Writing library : x264 core 148 r2692 64f4e24
Encoding settings : cabac=1 / ref=5 / deblock=1:0:0 / analyse=0x3:0x113 / me=umh / subme=9 / psy=1 / psy_rd=1.00:0.00 / mixed_ref=1 / me_range=24 / chroma_me=1 / trellis=1 / 8x8dct=1 / cqm=0 / deadzone=21,11 / fast_pskip=1 / chroma_qp_offset=-2 / threads=6 / lookahead_threads=1 / sliced_threads=0 / nr=0 / decimate=1 / interlaced=0 / bluray_compat=0 / constrained_intra=0 / bframes=16 / b_pyramid=2 / b_adapt=1 / b_bias=0 / direct=1 / weightb=1 / open_gop=0 / weightp=2 / keyint=300 / keyint_min=29 / scenecut=40 / intra_refresh=0 / rc_lookahead=40 / rc=crf / mbtree=1 / crf=17.0 / qcomp=0.60 / qpmin=0 / qpmax=69 / qpstep=4 / vbv_maxrate=62500 / vbv_bufsize=78125 / crf_max=0.0 / nal_hrd=none / filler=0 / ip_ratio=1.40 / aq=1:1.00Audio
ID : 2
Format : MPEG Audio
Format version : Version 1
Format profile : Layer 3
Mode : Joint stereo
Codec ID : A_MPEG/L3
Codec ID/Hint : MP3
Duration : 3mn 54s
Bit rate mode : Variable
Bit rate : 247 Kbps
Minimum bit rate : 32.0 Kbps
Channel(s) : 2 channels
Sampling rate : 44.1 KHz
Compression mode : Lossy
Video delay : 129ms
Stream size : 6.90 MiB (9%)
Writing library : LAME3.98r
Encoding settings : -m j -V 0 -q 0 -lowpass 19.5 --vbr-new -b 32
Language : English

Скриншоты

Яндекс.Метрика
Рейтинг@Mail.ru