Вербо / Verbo (Эдуардо Чаперо-Джексон / Eduardo Chapero-Jackson) [2011 г., фантастика, драма, HDRip] MVO

 

Создавать темы 02-Июл-2016 05:12

-Вербо / Verbo-- Производство: Испания, Apaches Entertainment, AXN, Canal+ España, ...
Год выпуска: 2011 г.
Жанр: фантастика, драма
Продолжительность: 01:24:13Мировая премьера: 22 сентября 2011
Перевод: Профессиональный (многоголосый, закадровый) [Deno Records]
Режиссер: Эдуардо Чаперо-Джексон / Eduardo Chapero-Jackson-В ролях: Альба Гарсия, Мигель Анхель Сильвестре, Вероника Эчеги, Виктор Клавихо, Макарена Гомес, Адам Йезерски, Фернандо Сото, Мишель Асанте, Нассер Салех Ибрихим, Маноло Соло.-Описание: Недалекое будущее. Люди живут в гигантских мегаполисах, почти не выбираясь с окраин в центр и не интересуясь практически ничем, что выходит за рамки их профессии. Однако бывают и исключения: пятнадцатилетняя Сара не может примириться с рутинной механистичностью окружающего мира. Поиски смысла приводят ее к Лирико, автору странных будоражащих душу граффити, от которого она узнает, что ее реальность — не единственная, а лишь одна из возможных. Так начинаются опасные приключения Сары в таинственном зазеркалье. И ставка в этой новой игре — жизнь девушки…-
Качество видео: HDRip
Контейнер: AVI
Видео кодек: XviD
Аудио кодек: AC3
Видео: 720x304 (2.37:1), 25 fps, XviD MPEG-4 ~1566 kbps avg, 0.29 bit/pixel
Аудио: 48 kHz, AC3 Dolby Digital, 3/2 (L,C,R,l,r) + LFE ch, ~448 kbps - Rus
Cубтитры: отсутствуют

Награды

Гойя, 2012 год
Номинации (2):
Лучшая актриса-дюбютант (Альба Гарсия)
Лучший режиссер-дебютант (Эдуардо Чаперо-Джексон)

Рецензия

Тихий бунтКаждая эпоха порождает внутри себя определённый протест. Холден Колфилд и Рэндл МакМёрфи — это бунтари 50-60-х годов, их бунт насквозь мужской, патриархальный, причём громкий, решительный и нескромный. Современный протест — это уже и внутренняя борьба, нерешительная, робкая, борьба вслепую, но, думаю, более искренняя и человечная. А ещё на её лице всё больше проступают женские черты.Вспоминается душевная компьютерная игра «Life is strange» — её героиня такая же одинокая девчонка, с виду серая и неприметная, расколотая внутренней борьбой, пытающаяся изменить несправедливую реальность. Почему и там, и здесь действует девочка-подросток? Новый архетип эпохи? Или изменившийся за полтораста лет образ всё той же кэрролловской Алисы? Из целомудренной викторианской девочки она трансформировалась в мечтательно-романтичную, «не такую, как все», но вроде бы гармоничную девчонку рубежа столетий ("Лабиринт» Джима Хэнсона, «Коралина в стране кошмаров» Селика, «Зеркальная маска» МакКина), а в наше время вылилась в одинокую, колеблющуюся, но сильную, способную на борьбу девушку-унисекс, с мальчишеской внешностью, но хрупкой, больной душой? Не знаю.Почему-то сквозь культуру последних 150-и лет красной нитью проходит образ девочки, которая соприкасается с иной реальностью. Здесь и цикл Баума-Волкова о Стране Оз, но образ Дороти-Элли, кажется, лишён такой проницательности и глубины.Похоже, общество взрослеет, взрослеет и Алиса, но никак не может расстаться с иномирьем, что перерастает из детского увлеченья в пугающую, навязчивую болезнь. Оттого и новые реинкарнации героини всё мрачнее, в них всё больше сумасшествия, одиночества и отрешённости. Но Алиса исполняет необходимую миссию, ведь Страна Чудес, в которой она завязла ради нас всех, — это бездонная пропасть мировых Знаний, это колодец Истины.Современная Алиса стала сильнее и жёстче, стала на скейтборд, подстриглась под мальчика и, кажется, переживает какую-то тяжёлую внутреннюю ломку. Похоже, она стоит на пороге какого-то нового уровня, готова взойти на какую-то новую ступень развития. Быть может, полуторавековой образ гостьи в Чужом Мире исчерпывает себя, и следующей будет новая Алиса, которая делает наш мир похожим на Зазеркалье? А персонаж Сары-Вербо символизирует этот переход? Не знаю, посмотрим.

Media Info

Общее
Полное имя : J:\Слово\Verbo.2011.HDRip.[pirat.ca].avi
Формат : AVI
Формат/Информация : Audio Video Interleave
Размер файла : 1,19 Гбайт
Продолжительность : 1 ч. 24 м.
Общий поток : 2025 Кбит/сек
Программа кодирования : VirtualDubMod 1.5.10.3 (build 2550/release)
Библиотека кодирования : VirtualDubMod build 2550/releaseВидео
Идентификатор : 0
Формат : MPEG-4 Visual
Профиль формата : Advanced [email protected]/* */
Параметр BVOP формата : 1
Параметр QPel формата : Нет
Параметр GMC формата : Без точки перехода
Параметр матрицы формата : Default (MPEG)
Идентификатор кодека : XVID
Идентификатор кодека/Подсказка : XviD
Продолжительность : 1 ч. 24 м.
Битрейт : 1568 Кбит/сек
Ширина : 720 пикселей
Высота : 304 пикселя
Соотношение сторон : 2,35:1
Частота кадров : 25,000 кадров/сек
Цветовое пространство : YUV
Субдискретизация насыщенности : 4:2:0
Битовая глубина : 8 бит
Тип развёртки : Прогрессивная
Метод сжатия : С потерями
Бит/(Пиксели*Кадры) : 0.287
Размер потока : 944 Мбайт (77%)
Библиотека кодирования : XviD 1.2.1 (UTC 2008-12-04)Аудио
Идентификатор : 1
Формат : AC-3
Формат/Информация : Audio Coding 3
Расширение режима : CM (complete main)
Параметр Endianness формата : Big
Идентификатор кодека : 2000
Продолжительность : 1 ч. 24 м.
Вид битрейта : Постоянный
Битрейт : 448 Кбит/сек
Каналы : 6 каналов
Расположение каналов : Front: L C R, Side: L R, LFE
Частота : 48,0 КГц
Частота кадров : 31,250 кадров/сек (1536 spf)
Метод сжатия : С потерями
Размер потока : 269 Мбайт (22%)
Выравнивание : Разделение по промежуткам
Продолжительность промежутка : 40 мс. (1,00 видеокадр)
Время предзагрузки промежутка : 500 мс.

Скриншот c названием фильма

Скриншоты

-Трейлер
Яндекс.Метрика
Рейтинг@Mail.ru