Идеалист / Idealisten (2015) HDRip [VO]

 

Создавать темы 06-Июл-2016 11:49

- Идеалист / Idealisten (2015) HDRip - Производство: Дания
Жанр: Триллер
Режиссер: Кристина Розендаль
Актеры: Петер Плаугборг, Сёрен Маллинг, Томас Бо Ларсен, Йенс Альбинус, Арли Жовер, Хенрик Бирк, Клаус Буэ, Ханс Хенрик Клеменсен, Николай Седерхольм, Оле Дюпон, Тим Ахерн, Ларри Дотсон, Пол Келлехер
Описание:
21 января 1968 года вблизи авиабазы Туле в Гренландии разбился американский бомбардировщик B-52 с четырьмя термоядерными бомбами на борту. Для проведения работ по очистке и дезактивации заражённой местности были привлечены и датские рабочие. Спустя двадцать лет радиорепортёр Поуль Брик поднимает тему неблагополучного состояния здоровья ликвидаторов последствий аварии. Чем дальше он продвигается в своём журналистском расследовании, тем отчётливее проступают контуры большой политической лжи, тщательно скрываемой как датскими, так и американскими властями.
Релиз от: Scarabey
Продолжительность: 01:53:31
Качество видео: HDRip http://sendfile.su/1247797
Перевод: Одноголосый закадровый, любительский (Marti)
Видео: Xvid, 688x368, ~1622 kbps
Аудио: AC3, 2 ch, 192 kbps, CBR

Mediainfo:

Общее
Полное имя                               : D:\KINO 3\011LETTO\Idealist.avi
Формат                                   : AVI
Формат/Информация                        : Audio Video Interleave
Размер файла                             : 1,45 Гбайт
Продолжительность                        : 1 ч. 53 м.
Общий поток                              : 1823 Кбит/сек
Программа кодирования                    : VirtualDubMod 1.5.10.2 (build 2540/release)
Библиотека кодирования                   : VirtualDubMod build 2540/release
Видео
Идентификатор                            : 0
Формат                                   : MPEG-4 Visual
Профиль формата                          : Advanced [email protected]
Параметр BVOP формата                    : 1
Параметр QPel формата                    : Нет
Параметр GMC формата                     : Без точки перехода
Параметр матрицы формата                 : Выборочная
Идентификатор кодека                     : XVID
Идентификатор кодека/Подсказка           : XviD
Продолжительность                        : 1 ч. 53 м.
Битрейт                                  : 1622 Кбит/сек
Ширина                                   : 688 пикселей
Высота                                   : 368 пикселей
Соотношение сторон                       : 1,85:1
Частота кадров                           : 24,000 кадра/сек
Цветовое пространство                    : YUV
Субдискретизация насыщенности            : 4:2:0
Битовая глубина                          : 8 бит
Тип развёртки                            : Прогрессивная
Метод сжатия                             : С потерями
Бит/(Пиксели*Кадры)                      : 0.267
Размер потока                            : 1,29 Гбайт (89%)
Библиотека кодирования                   : XviD 73
Аудио
Идентификатор                            : 1
Формат                                   : AC-3
Формат/Информация                        : Audio Coding 3
Расширение режима                        : CM (complete main)
Параметр Endianness формата              : Big
Идентификатор кодека                     : 2000
Продолжительность                        : 1 ч. 53 м.
Вид битрейта                             : Постоянный
Битрейт                                  : 192 Кбит/сек
Каналы                                   : 2 канала
Расположение каналов                     : Front: L R
Частота                                  : 48,0 КГц
Частота кадров                           : 31,250 кадров/сек (1536 spf)
Метод сжатия                             : С потерями
Размер потока                            : 156 Мбайт (11%)
Выравнивание                             : Соединение по промежуткам
Продолжительность промежутка             : 42  мс. (1,00 видеокадр)
Время предзагрузки промежутка            : 512  мс.
Скриншоты:
Яндекс.Метрика
Рейтинг@Mail.ru