[ Сегодня на трекере фрилич! Идет свободное скачивание без начисления Download ]

Закон рынка / La loi du marche (2015) HDRip

 

Создавать темы 07-Июл-2016 11:00

- Закон рынка / La loi du marche (2015) HDRip - Производство: Франция, Arte France, Canal+, TS Productions
Жанр: Драма
Режиссер: Стефан Бризе
Актеры: Венсан Линдон, Карин де Мирбек, Маттье Шаллер, Ив Ори, Ксавьер Мэтью, Пол Портолоу, Пьер-Жан Фельд, Филипп Веско, Христоф Россигнон, Ноэль Мэйро
Описание:
Тьерри 51 год, его жизнь не проста, но он умеет радоваться мелочам. После почти двух лет безработицы и жизни на пособии он наконец устраивается охранником в супермаркет. Казалось, одной проблемой меньше, но вскоре Тьерри сталкивается с дилеммой. Обстоятельства и долг заставляют его выбирать между справедливостью и милосердием. На что готов пойти человек в страхе потерять доставшееся с трудом место работы?-Возраст: 12+ (зрителям, достигшим 12 лет)
Дата мировой премьеры: 18 мая 2015
Дата российской премьеры: 19 мая 2016, «Russian World Vision»
Продолжительность: 01:31:23
Качество видео: HDRip [thumb]http://multi-up.com/1107123[/thumb]
Перевод: Многоголосый закадровый, профессиональный (Официальный звук)
Вид субтитров: Отсутствуют
Видео: Xvid, 720x304, ~1942 Кбит/сек
Аудио: AC3, 2 ch, 192 Кбит/сек, CBR

Mediainfo:

Общее
Полное имя                               : C:Торренты\Закон рынка.2015.P.HDRip.avi
Формат                                   : AVI
Формат/Информация                        : Audio Video Interleave
Размер файла                             : 1,37 Гбайт
Продолжительность                        : 1 ч. 31 м.
Общий поток                              : 2143 Кбит/сек
Программа кодирования                    : VirtualDubMod 1.5.10.3 (build 2550/release)
Библиотека кодирования                   : VirtualDubMod build 2550/release
Видео
Идентификатор                            : 0
Формат                                   : MPEG-4 Visual
Профиль формата                          : Advanced [email protected]
Параметр BVOP формата                    : 2
Параметр QPel формата                    : Нет
Параметр GMC формата                     : Без точки перехода
Параметр матрицы формата                 : Default (MPEG)
Идентификатор кодека                     : XVID
Идентификатор кодека/Подсказка           : XviD
Продолжительность                        : 1 ч. 31 м.
Битрейт                                  : 1942 Кбит/сек
Ширина                                   : 720 пикселей
Высота                                   : 304 пикселя
Соотношение сторон                       : 2,35:1
Частота кадров                           : 23,976 (24000/1001) кадра/сек
Цветовое пространство                    : YUV
Субдискретизация насыщенности            : 4:2:0
Битовая глубина                          : 8 бит
Тип развёртки                            : Прогрессивная
Метод сжатия                             : С потерями
Бит/(Пиксели*Кадры)                      : 0.370
Размер потока                            : 1,24 Гбайт (91%)
Библиотека кодирования                   : XviD 1.2.1 (UTC 2008-12-04)
Аудио
Идентификатор                            : 1
Формат                                   : AC-3
Формат/Информация                        : Audio Coding 3
Расширение режима                        : CM (complete main)
Параметр Endianness формата              : Big
Идентификатор кодека                     : 2000
Продолжительность                        : 1 ч. 31 м.
Вид битрейта                             : Постоянный
Битрейт                                  : 192 Кбит/сек
Каналы                                   : 2 канала
Расположение каналов                     : Front: L R
Частота                                  : 48,0 КГц
Частота кадров                           : 31,250 кадров/сек (1536 spf)
Метод сжатия                             : С потерями
Размер потока                            : 125 Мбайт (9%)
Выравнивание                             : Разделение по промежуткам
Продолжительность промежутка             : 42  мс. (1,00 видеокадр)
Время предзагрузки промежутка            : 500  мс.
Скриншоты:
Яндекс.Метрика
Рейтинг@Mail.ru