Луна 44 / Moon 44 (Роланд Эммерих / Roland Emmerich) [1989 г., фантастика, боевик, триллер, BDRip-AVC, 720p] Dub [МОСФИЛЬМ] + Original (Eng) + Sub (Rus, Eng)

 

Создавать темы 11-Июл-2016 05:08

-Луна 44 / Moon 44-- Производство: Германия (ФРГ), Centropolis Film Productions, Overseas FilmGroup, ...
Год выпуска: 1989 г.
Жанр: фантастика, боевик, триллер
Продолжительность: 01:39:19Мировая премьера: 15 февраля 1990
Дата выхода DVD: 1 апреля 2010, «CP-Digital»
Перевод: Профессиональный (полное дублирование) [МОСФИЛЬМ]
Оригинальный аудиопоток: английскийРежиссер: Роланд Эммерих / Roland Emmerich-В ролях: Майкл Паре, Лиза Айкхорн, Дин Девлин, Брайан Томпсон, Малкольм МакДауэлл, Стивен Джеффрис, Леон Риппи, Йохен Никель, Мехмет Йилмаз, Джон Марч
Роли дублировали: Александр Белявский, Александр Новиков, Валерий Немешаев, Владислав Ковальков, Ирина Губанова, ...-Описание: Галактическая Горнодобывающая Корпорация получает информацию о том, что их роботы похищаются с Луны-44, и отправляет на станцию детектива Стоуна для расследования. Стоун вынужден действовать под прикрытием в качестве одного из заключенных, которых отправляют на Луну 44, чтобы пилотировать специальные вертолеты.Но он не знает, что командир станции майор Ли проинструктирован — в случае нападения на Луну-44 пожертвовать людьми ради спасения роботов. И когда детектив выслеживает предателей, ему приходится сражаться на два фронта, пытаясь спасти и людей, и роботов от уничтожения.-
Качество видео: BDRip-AVC
Контейнер: MKV
Стандарт разрешения: 720p
Видео кодек: MPEG4 AVC
Аудио кодек: AC3
Видео: AVC (x264) [email protected]/* */ fps ~ 2762 kBit/s 0.216
Аудио: Дубляж Мосфильм AC3 192 kBit/s 48 kHz 2.0 DD
Cубтитры: русские, английские
Формат субтитров: softsub (SRT)
Доп. информация о субтитрах: включаемые

Рецензия

С 90-го год я посмотрела фильм 17 раз, для меня это тот уникальный случай, когда фильм, который известен тебе наизусть, продолжает держать в напряжении до самого финала. Поэтому, если выдается возможность с огромным удовольствием его пересматриваю. Уникальный атмосферный фильм, такие теперь редко снимают…«Эй Шекспир, ты забыл свою книгу…»Первый раз смотрел этот фильм в кинотеатре в 1990 году и с тех пор данный фильм мне не стал нравиться меньше, наверное потому, что в нем все таки есть та самая «душевная искра».Несомненно, это один из лучших фильмов Роланда Эммериха, хоть и почти не известный широкой публике. Вообще самые интересные работы этого режиссера (на мой взгляд) пришлись на раннюю часть его фильмографии («Луна-44», «Звездные врата», «День независимости», «Годзилла»), тогда еще оригинальность не изменяла этому режиссеру.Актеры подобраны так точно, что многим из них даже не пришлось особо вживаться в роль. Из актеров мировой величины, можно выделить лишь звезду «Заводного апельсина» легендарного Малкольма Макдауэлла, в роли главного злодея.Отлично сыграл образ героя одиночки Майкл Парэ, в роли детектива Феликса Стоуна, который читает Шекспира не обращая внимания на «недоумевающих» заключенных. Я бы даже сравнил его игру с тем, как ведет себя В. Цой в «Игле» (да, это не опечатка), то же меланхоличное покуривание сигареты, та же немногословность и невозмутимость, тот же героический образ.Очень яркая игра Дина Девлина, в роли неугомонного подростка-навигатора боевых вертолетов Тайлера, который трещит без остановки. При этом не важно, что он говорит, главное, что выглядит это очень убедительно, как в жизни, даже и забываешь о том, что это фантастика. Кстати, после этого фильма Дин Девлин стал, пожалуй, основным сценаристом и соавтором фильмов Эммериха.На «жизненность» фильма указывают и конфликты подростков с заключенными. Среди заключенных особенно запоминается их «предводитель» Джейк О Нил, которого сыграл Брайн Томпсон, впрочем человеку с таким амплуа и играть не надо, уверен роль заключенного далась ему очень легко. Кстати, «предводитель» заключенных, который по началу кажется чуть ли не самым отрицательным персонажем в фильме, по ходу действия меняется и становится своего рода «героем», хоть и посмертно. После того, как он выкрал у полицейского книгу Шекспира и прочитал ее, он как бы переосмыслил свои «понятия», превратился из отрицательного героя в положительного и совершил подвиг ценой своей жизни. Ведь режиссер картины Роланд Эммерих уже упоминал, что его фильмы «прославляют Шекспира»…Запомнился так же и вечно нервный сержант Сайкс, классический образ «плохого начальника».Лиза Айкхорн в роли военной женщины смотрится довольно убедительно, да и вообще берет своей «добротой и честностью», как бы наивно это не звучало сегодня.Музыка в фильме очень подходящая, есть в ней что то сближающее с космосом и побуждающее маневрировать на вертолете, не боясь разбиться, в экзотических ущельях лунного каньона…10 из 10
Один из лучших фильмов жанра «научной фантастики» на космическую тематику от режиссёра Роланда Эммериха. Так же в этой картине, актёр Майкл Паре сыграл одну из своих самых ярких ролей.
Музыка — известного композитора Джоэля Голдсмита. Примечательно, что этот фильм был снят в Германии — в стране, которая никогда не являлась производителем «фантастического кино».

Media Info

Общее
Уникальный идентификатор : 247338256068450514809121478190662240707 (0xBA139D893F4282EA92D4B890ECA549C3)
Полное имя : J:\Луна 44\Luna 44.1990.BDRip-AVC.[pirat.ca].mkv
Формат : Matroska
Версия формата : Version 4 / Version 2
Размер файла : 2,18 Гбайт
Продолжительность : 1 ч. 39 м.
Общий поток : 3147 Кбит/сек
Дата кодирования : UTC 2013-12-13 21:36:27
Программа кодирования : mkvmerge v6.6.0 ('The Edge Of The In Between') built on Dec 1 2013 17:55:00
Библиотека кодирования : libebml v1.3.0 + libmatroska v1.4.1Видео
Идентификатор : 1
Формат : AVC
Формат/Информация : Advanced Video Codec
Профиль формата : [email protected]/* */
Параметр CABAC формата : Да
Параметр ReFrames формата : 15 кадров
Идентификатор кодека : V_MPEG4/ISO/AVC
Продолжительность : 1 ч. 39 м.
Битрейт : 2762 Кбит/сек
Ширина : 1120 пикселей
Высота : 476 пикселей
Соотношение сторон : 2,35:1
Режим частоты кадров : Постоянный
Частота кадров : 24,000 кадра/сек
Цветовое пространство : YUV
Субдискретизация насыщенности : 4:2:0
Битовая глубина : 8 бит
Тип развёртки : Прогрессивная
Бит/(Пиксели*Кадры) : 0.216
Размер потока : 1,87 Гбайт (86%)
Заголовок : AVC (x264) [email protected]/* */ fps ~ 2762 kBit/s 0.216
Библиотека кодирования : x264 core 130 r2274bm c832fe9
Настройки программы : cabac=1 / ref=15 / deblock=1:-3:-3 / analyse=0x3:0x133 / me=umh / subme=11 / psy=1 / psy_rd=1.00:0.05 / mixed_ref=1 / me_range=32 / chroma_me=1 / trellis=2 / 8x8dct=1 / cqm=0 / deadzone=21,11 / fast_pskip=0 / chroma_qp_offset=-3 / threads=6 / lookahead_threads=1 / sliced_threads=0 / nr=0 / decimate=1 / interlaced=0 / bluray_compat=0 / constrained_intra=0 / bframes=12 / b_pyramid=2 / b_adapt=2 / b_bias=0 / direct=3 / weightb=1 / open_gop=0 / weightp=2 / keyint=250 / keyint_min=23 / scenecut=40 / intra_refresh=0 / rc=2pass / mbtree=0 / bitrate=2762 / ratetol=1.0 / qcomp=0.90 / qpmin=10 / qpmax=69 / qpstep=4 / cplxblur=40.0 / qblur=1.2 / ip_ratio=1.30 / pb_ratio=1.20 / aq=3:0.95
Язык : English
Default : Да
Forced : НетАудио #1
Идентификатор : 2
Формат : AC-3
Формат/Информация : Audio Coding 3
Расширение режима : CM (complete main)
Параметр Endianness формата : Big
Идентификатор кодека : A_AC3
Продолжительность : 1 ч. 39 м.
Вид битрейта : Постоянный
Битрейт : 192 Кбит/сек
Каналы : 2 канала
Расположение каналов : Front: L R
Частота : 48,0 КГц
Частота кадров : 31,250 кадров/сек (1536 spf)
Метод сжатия : С потерями
Размер потока : 136 Мбайт (6%)
Заголовок : Дубляж Мосфильм AC3 192 kBit/s 48 kHz 2.0 DD
Язык : Russian
Default : Да
Forced : НетАудио #2
Идентификатор : 3
Формат : AC-3
Формат/Информация : Audio Coding 3
Расширение режима : CM (complete main)
Параметр Endianness формата : Big
Идентификатор кодека : A_AC3
Продолжительность : 1 ч. 39 м.
Вид битрейта : Постоянный
Битрейт : 192 Кбит/сек
Каналы : 2 канала
Расположение каналов : Front: L R
Частота : 48,0 КГц
Частота кадров : 31,250 кадров/сек (1536 spf)
Метод сжатия : С потерями
Размер потока : 136 Мбайт (6%)
Заголовок : English AC3 192 kBit/s 48 kHz 2.0 DD
Язык : English
Default : Нет
Forced : НетТекст #1
Идентификатор : 4
Формат : UTF-8
Идентификатор кодека : S_TEXT/UTF8
Идентификатор кодека/Информация : UTF-8 Plain Text
Язык : Russian
Default : Нет
Forced : НетТекст #2
Идентификатор : 5
Формат : UTF-8
Идентификатор кодека : S_TEXT/UTF8
Идентификатор кодека/Информация : UTF-8 Plain Text
Язык : English
Default : Нет
Forced : Нет

Скриншот c названием фильма

Скриншоты

-Трейлер
Яндекс.Метрика
Рейтинг@Mail.ru