Бэтмен против Супермена: На заре справедливости / Batman v Superman: Dawn of Justice (2016) BDRip 1080p от ExKinoRay | Theatrical Cut | Лицензия

 

Создавать темы 17-Июл-2016 01:34

Информация о фильме
Название: Бэтмен против Супермена: На заре справедливости
Оригинальное название: Batman v Superman: Dawn of Justice
Год выхода: 2016
Жанр: Фантастика, фэнтези, боевик, приключения
Режиссер: Зак Снайдер
В ролях: Генри Кавилл, Бен Аффлек, Галь Гадот, Эми Адамс, Джесси Айзенберг, Джереми Айронс, Дайан Лэйн, Лоренс Фишбёрн, Холли Хантер, Скут МакНэйри, Каллэн Мулвей, Тао Окамото, Брэндон Спинк, Лорен Коэн, Алан Д. Первин, Марк Эдвард Тейлор, Хью Магвайр, Майкл Шеннон, Ханна Дворкин, Тиффани Л. Эддисон
О фильме:
Битва между Кал-Элом и генералом Зодом наносит множество разрушений Метрополису и соседнему Готэм Сити. Башня Уэйн-тауэр - уничтожена вместе с сотнями невинных людей. Это становится началом конфликта между Последним Сыном Криптона и Темным Рыцарем Готэма, богом и человеком. Тем временем, сумасшедший гений Лекс Лютор готовит оружие Судного дня, способное уничтожить не только богоподобного Супермена, но и все человечество.

Страна: США
Студия: Atlas Entertainment, DC Comics, DC Entertainment, Warner Bros. Pictures
Продолжительность: 02:31:41
Перевод: Дублированный | Лицензия
Файл
Кодек: MPEG-4
Качество: BDRip 1080p
Видео: 1920x800, 14.7 Mbit/s, 23.976 fps
Звук:
Аудио #01: 48 kHz, AC3, 5.1, 448 Kbps | Дублированный, Лицензия |
Аудио #02: 48 kHz, AC3, 5.1, 640 kbps | Оригинал |
Субтитры: Русские (forced,full), английские (srt,SDH)

MI

General
Unique ID : 234362551855253006726336665784674132135 (0xB05095ECE72EE507A99F4E15F9DFA0A7)
Complete name : F:VideoBatman.v.Superman.Dawn.of.Justice.2016.THEATRICAL.CUT.D.BDRip.1080p.ExKinoRay.mkv
Format : Matroska
Format version : Version 4 / Version 2
File size : 16.7 GiB
Duration : 2h 31mn
Overall bit rate : 15.8 Mbps
Movie name : Batman.v.Superman.Dawn.of.Justice.2016.THEATRICAL.CUT.D.BDRip.1080p.ExKinoRay
Encoded date : UTC 2016-07-16 21:57:25
Writing application : mkvmerge v8.3.0 ('Over the Horizon') 64bit
Writing library : libebml v1.3.1 + libmatroska v1.4.2
Video
ID : 1
Format : AVC
Format/Info : Advanced Video Codec
Format profile : [email protected]
Format settings, CABAC : Yes
Format settings, ReFrames : 5 frames
Codec ID : V_MPEG4/ISO/AVC
Duration : 2h 31mn
Bit rate : 14.7 Mbps
Width : 1 920 pixels
Height : 800 pixels
Display aspect ratio : 2.40:1
Frame rate mode : Constant
Frame rate : 23.976 (24000/1001) fps
Color space : YUV
Chroma subsampling : 4:2:0
Bit depth : 8 bits
Scan type : Progressive
Bits/(Pixel*Frame) : 0.400
Stream size : 15.6 GiB (93%)
Title : ***selezen***
Writing library : x264 core 146 r2538 121396c
Encoding settings : cabac=1 / ref=5 / deblock=1:-3:-3 / analyse=0x3:0x133 / me=umh / subme=10 / psy=1 / psy_rd=1.10:0.00 / mixed_ref=1 / me_range=32 / chroma_me=1 / trellis=2 / 8x8dct=1 / cqm=0 / deadzone=21,11 / fast_pskip=0 / chroma_qp_offset=-2 / threads=6 / lookahead_threads=2 / sliced_threads=0 / nr=0 / decimate=0 / interlaced=0 / bluray_compat=0 / constrained_intra=0 / bframes=8 / b_pyramid=2 / b_adapt=2 / b_bias=0 / direct=3 / weightb=1 / open_gop=0 / weightp=2 / keyint=240 / keyint_min=23 / scenecut=40 / intra_refresh=0 / rc_lookahead=150 / rc=2pass / mbtree=1 / bitrate=14719 / ratetol=1.0 / qcomp=0.70 / qpmin=0 / qpmax=69 / qpstep=4 / cplxblur=20.0 / qblur=0.5 / vbv_maxrate=50000 / vbv_bufsize=62500 / nal_hrd=none / filler=0 / ip_ratio=1.40 / aq=3:0.80
Language : English
Default : Yes
Forced : No
Audio #1
ID : 2
Format : AC-3
Format/Info : Audio Coding 3
Mode extension : CM (complete main)
Format settings, Endianness : Big
Codec ID : A_AC3
Duration : 2h 31mn
Bit rate mode : Constant
Bit rate : 448 Kbps
Channel(s) : 6 channels
Channel positions : Front: L C R, Side: L R, LFE
Sampling rate : 48.0 KHz
Frame rate : 31.250 fps (1536 spf)
Compression mode : Lossy
Stream size : 486 MiB (3%)
Title : DUB [Blu-ray CEE]
Language : Russian
Default : Yes
Forced : No
Audio #2
ID : 3
Format : AC-3
Format/Info : Audio Coding 3
Mode extension : CM (complete main)
Format settings, Endianness : Big
Codec ID : A_AC3
Duration : 2h 31mn
Bit rate mode : Constant
Bit rate : 640 Kbps
Channel(s) : 6 channels
Channel positions : Front: L C R, Side: L R, LFE
Sampling rate : 48.0 KHz
Frame rate : 31.250 fps (1536 spf)
Compression mode : Lossy
Stream size : 694 MiB (4%)
Title : Original
Language : English
Default : No
Forced : No
Text #1
ID : 4
Format : UTF-8
Codec ID : S_TEXT/UTF8
Codec ID/Info : UTF-8 Plain Text
Duration : 2h 30mn
Bit rate : 4 bps
Count of elements : 100
Stream size : 4.72 KiB (0%)
Title : Forced [iTunes]
Language : Russian
Default : Yes
Forced : No
Text #2
ID : 5
Format : UTF-8
Codec ID : S_TEXT/UTF8
Codec ID/Info : UTF-8 Plain Text
Duration : 2h 31mn
Bit rate : 57 bps
Count of elements : 1293
Stream size : 63.8 KiB (0%)
Title : Full [iTunes]
Language : Russian
Default : No
Forced : No
Text #3
ID : 6
Format : UTF-8
Codec ID : S_TEXT/UTF8
Codec ID/Info : UTF-8 Plain Text
Duration : 2h 22mn
Bit rate : 35 bps
Count of elements : 1149
Stream size : 36.7 KiB (0%)
Title : Full
Language : English
Default : No
Forced : No
Text #4
ID : 7
Format : UTF-8
Codec ID : S_TEXT/UTF8
Codec ID/Info : UTF-8 Plain Text
Duration : 2h 31mn
Bit rate : 39 bps
Count of elements : 1474
Stream size : 43.5 KiB (0%)
Title : SDH
Language : English
Default : No
Forced : No
Menu
00:00:00.000 : en:00:00:00.000
00:09:50.048 : en:00:09:50.048
00:20:45.786 : en:00:20:45.786
00:29:58.672 : en:00:29:58.672
00:38:46.616 : en:00:38:46.616
00:49:25.921 : en:00:49:25.921
00:59:21.558 : en:00:59:21.558
01:10:06.202 : en:01:10:06.202
01:21:15.120 : en:01:21:15.120
01:30:00.312 : en:01:30:00.312
01:38:20.812 : en:01:38:20.812
01:49:57.382 : en:01:49:57.382
02:01:49.052 : en:02:01:49.052
02:10:40.416 : en:02:10:40.416
02:18:41.313 : en:02:18:41.313
02:23:50.372 : en:02:23:50.372

Скриншоты

-Релиз от: Автор релиза:
Яндекс.Метрика
Рейтинг@Mail.ru