[ Сегодня на трекере фрилич! Идет свободное скачивание без начисления Download ]

Славные парни / The Nice Guys (2016) WEB-DL 1080p | iTunes

 

Создавать темы 28-Июл-2016 19:55

Информация о фильме
Название: Славные парни
Оригинальное название: The Nice Guys
Год выхода: 2016
Жанр: криминал, комедия
Режиссер: Шейн Блэк
В ролях: Райан Гослинг, Ким Бейсингер, Рассел Кроу, Энгаури Райс, Мэтт Бомер, Маргарет Куэлли, Йайа ДаКоста, Кит Дэвид, Бо Напп, Лоис Смит
О фильме: Что бывает, когда напарником брутального костолома становится субтильный лопух? Наемный охранник Джексон Хили и частный детектив Холланд Марч вынуждены работать в паре, чтобы распутать плевое дело о пропавшей девушке, которое оборачивается преступлением века. Смогут ли парни разгадать сложный ребус, если у каждого из них — свои, весьма индивидуальные методы…

Выпущено: США, Великобритания
Продолжительность: 01:51:03
Озвучивание: Дублированное [iTunes]
Файл
Формат: MKV
Качество: WEB-DL 1080p
Видео: MPEG-4 AVC, 4324 kb/s, 1920x804
Аудио: AC3, 384 kb/s (6 ch)

MI

Format : Matroska
Format version : Version 2
File size : 3.73 GiB
Duration : 1h 51mn
Overall bit rate : 4 803 Kbps
Movie name : The Nice Guys (2016) - Release for HDCLUB
Encoded date : UTC 2016-07-27 18:35:24
Writing application : mkvmerge v3.4.0 ('Rapunzel') built on May 15 2010 09:38:20
Writing library : libebml v0.8.0 + libmatroska v0.9.0
Video
ID : 1
Format : AVC
Format/Info : Advanced Video Codec
Format profile : [email protected]
Format settings, CABAC : Yes
Format settings, ReFrames : 5 frames
Codec ID : V_MPEG4/ISO/AVC
Duration : 1h 51mn
Bit rate : 4 324 Kbps
Width : 1 920 pixels
Height : 804 pixels
Display aspect ratio : 2.40:1
Frame rate mode : Constant
Frame rate : 25.000 fps
Color space : YUV
Chroma subsampling : 4:2:0
Bit depth : 8 bits
Scan type : Progressive
Bits/(Pixel*Frame) : 0.112
Stream size : 3.35 GiB (90%)
Title : The Nice Guys (2016) - Release for HDCLUB
Language : English
Default : Yes
Forced : No
Color range : Limited
Color primaries : BT.709
Transfer characteristics : BT.709
Matrix coefficients : BT.709
Audio
ID : 2
Format : AC-3
Format/Info : Audio Coding 3
Mode extension : CM (complete main)
Format settings, Endianness : Big
Codec ID : A_AC3
Duration : 1h 51mn
Bit rate mode : Constant
Bit rate : 384 Kbps
Channel(s) : 6 channels
Channel positions : Front: L C R, Side: L R, LFE
Sampling rate : 48.0 KHz
Bit depth : 16 bits
Compression mode : Lossy
Stream size : 305 MiB (8%)
Title : AC3 5.1 @ 384 kbps - DUB, iTunes
Language : Russian
Default : Yes
Forced : No
Menu
00:00:00.000 : en:1
00:05:11.920 : en:2
00:10:32.080 : en:3
00:15:49.320 : en:4
00:21:52.600 : en:5
00:27:59.160 : en:6
00:33:26.560 : en:7
00:39:43.040 : en:8
00:45:19.960 : en:9
00:50:40.440 : en:10
00:56:20.680 : en:11
01:03:01.800 : en:12
01:08:38.720 : en:13
01:14:35.520 : en:14
01:21:06.640 : en:15
01:27:33.440 : en:16
01:33:37.520 : en:17
01:39:12.280 : en:18

Скриншоты:

Яндекс.Метрика
Рейтинг@Mail.ru