Пришельцы 3: Взятие Бастилии / Les Visiteurs: La Révolution (Жан-Мари Пуаре / Jean-Marie Poiré) [2016 г., комедия, WEBRip] Dub [звук с TS]

 

Создавать темы 06-Авг-2016 03:07

--Пришельцы 3: Взятие Бастилии / Les Visiteurs: La Révolution-- Производство: Франция, Gaumont, Ouille Productions, Nexus Factory
Год выпуска: 2016 г.
Жанр: комедия
Продолжительность: 01:49:28--Мировая премьера: 6 апреля 2016
Российская премьера: 7 апреля 2016, «Люксор»--Перевод: Профессиональный (полное дублирование) [звук с TS]--Режиссер: Жан-Мари Пуаре / Jean-Marie Poiré--В ролях: Кристиан Клавье, Жан Рено, Франк Дюбоск, Карин Вьяр, Сильви Тестю, Мари-Анн Шазель, Эри Абиттан, Алекс Лутс, Стефани де Крэенкур, Вероника Буланжер--Описание: В третьей части граф с оруженосцем отправляются в самое сложное для Франции время — период Французской революции.-- --Качество видео: WEBRip
Контейнер: AVI
Видео кодек: XviD
Аудио кодек: MP3
Видео: 720x304 (2.37:1), 24.000 fps, XviD build 64 ~1696 kbps avg, 0.32 bit/pixel
Аудио: 48 kHz, MPEG Layer 3, 2 ch, ~192.00 kbps avgCубтитры: отсутствуют.

Media Info

Общее
Полное имя : H:\Torrent2\Les.Visiteurs.La.Revolution.2016.WEBRip.avi
Формат : AVI
Формат/Информация : Audio Video Interleave
Профиль формата : OpenDML
Размер файла : 1,45 Гбайт
Продолжительность : 1 ч. 49 м.
Общий поток : 1902 Кбит/сек
Программа кодирования : XviD4PSP 6.0 / 54.29.105Видео
Идентификатор : 0
Формат : xvid
Идентификатор кодека : xvid
Продолжительность : 1 ч. 49 м.
Битрейт : 1696 Кбит/сек
Ширина : 720 пикселей
Высота : 304 пикселя
Соотношение сторон : 2,35:1
Частота кадров : 24,000 кадра/сек
Тип развёртки : Прогрессивная
Бит/(Пиксели*Кадры) : 0.323
Размер потока : 1,30 Гбайт (89%)Аудио
Идентификатор : 1
Формат : MPEG Audio
Версия формата : Version 1
Профиль формата : Layer 3
Режим : Joint stereo
Идентификатор кодека : 55
Идентификатор кодека/Подсказка : MP3
Продолжительность : 1 ч. 49 м.
Вид битрейта : Постоянный
Битрейт : 192 Кбит/сек
Каналы : 2 канала
Частота : 48,0 КГц
Метод сжатия : С потерями
Задержка видео : 4 с. 216 мс.
Размер потока : 150 Мбайт (10%)
Выравнивание : Соединение по промежуткам
Продолжительность промежутка : 24 мс. (0,58 видеокадр)

Скриншоты

Трейлер
Яндекс.Метрика
Рейтинг@Mail.ru