Рик и Морти / Rick and Morty / Сезон: 2 / Серии: 1-10 (10) (Пит Мишелс / Pete Michels, ...) [2015 г., мультфильм, комедия, фантастика, BDRip, 1080p] VO (Сыендук) + Original (Eng) + Sub (Rus, Eng)

 

Создавать темы 08-Авг-2016 06:00

-Рик и Морти / Rick and Morty
«Science makes sense, family doesn't»
(2 сезон)
-- Производство: США
Режиссер: Пит Мишелс / Pete Michels, Брайан Ньютон / Bryan Newton, Джон Райс / John Rice, ...
Жанр: мультфильм, комедия, фантастика
Год выпуска: 2015 г.
Продолжительность: 10x ~00:20:00Перевод: Любительский (одноголосый, закадровый) [Сыендук]
Оригинальный аудиопоток: английскийРоли озвучивали: Джастин Ройланд, Крис Парнелл, Спенсер Грэммер, Сара Чок, Кари Уолгрен, Райан Ридли, Том Кенни, Морис ЛаМарш, Фил Хендри, Брэндон Джонсон-Описание: Учёный-социопат вовлекает своего невинного внука в опасные межпространственные приключения.- -Качество видео: BDRip
Источник: Rick.and.Morty.S02.1080p.BluRay.DD5.1.x264-NTb
Контейнер: MKV
Стандарт разрешения: 1080p
Видео кодек: H.264/AVC
Аудио кодек: AC3
Видео: 1920x1080 at 23.976 fps, ~5500 kbps avg
Аудио: Russian: 48 kHz/16-bit, AC3 5.1, ~640.00 kbps avg |Одноголосый закадровый, Сыендук|
Аудио #2: English: 48 kHz/16-bit, AC3 5.1, ~640.00 kbps avg
Аудио #3: English: 48 kHz, AC3, 2/0 (L,R) ch, ~192.00 kbps avg |Creator and Animator Audio Commentaries|
Аудио #4: English: 48 kHz, AC3, 2/0 (L,R) ch, ~192.00 kbps avg |Special Guest Commentaries (2,4 и 6 серии)|Cубтитры: Russian (Netflix), English, English SDH

Список серий

01: Рик во времени / A Rickle in Time
02: Успеть до Морти-ночи / Mortynight Run
03: Аутоэротическая ассимиляция / Auto Erotic Assimilation
04: Вспомнить Вэ Сэ Йо / Total Rickall
05: Пора швифтануться / Get Schwifty
06: Наверное, Рики сошли с ума / The Ricks Must Be Crazy
07: Большой переполох в маленьком Санчезе / Big Trouble in Little Sanchez
08: Межвселенский кабель 2: Искушение судьбы / Interdimensional Cable 2: Tempting Fate
09: Судная ночь / Look Who's Purging Now
10: The Wedding Squanchers

Media Info

Код:
Format                      : Matroska
Format version              : Version 4 / Version 2
File size                   : 1.16 GiB
Duration                    : 22mn 51s
Overall bit rate            : 7 265 Kbps
Movie name                  : Рик и Морти / Rick and Morty (2015) S02E01 Рик во времени / A Rickle in Time
Encoded date                : UTC 2016-08-06 10:34:29
Writing application         : mkvmerge v9.3.1 ('Mask Machine') 64bit
Writing library             : libebml v1.3.4 + libmatroska v1.4.5
Attachements                : cover.jpgVideo
ID                          : 1
Format                      : AVC
Format/Info                 : Advanced Video Codec
Format profile              : [email protected]/*  */
Format settings, CABAC      : Yes
Format settings, ReFrames   : 4 frames
Codec ID                    : V_MPEG4/ISO/AVC
Duration                    : 22mn 51s
Bit rate                    : 5 648 Kbps
Width                       : 1 920 pixels
Height                      : 1 080 pixels
Display aspect ratio        : 16:9
Frame rate mode             : Constant
Frame rate                  : 23.976 fps
Color space                 : YUV
Chroma subsampling          : 4:2:0
Bit depth                   : 8 bits
Scan type                   : Progressive
Bits/(Pixel*Frame)          : 0.114
Stream size                 : 924 MiB (78%)
Title                       : MPEG-4 AVC @ ~3500 kbps - NTb
Writing library             : x264 core 148 r2692kMod 64f4e24
Encoding settings           : cabac=1 / ref=4 / deblock=1:-2:-1 / analyse=0x3:0x133 / me=umh / subme=10 / psy=1 / fade_compensate=0.00 / psy_rd=0.50:0.00 / mixed_ref=1 / me_range=32 / chroma_me=1 / trellis=2 / 8x8dct=1 / cqm=0 / deadzone=21,11 / fast_pskip=1 / chroma_qp_offset=-2 / threads=12 / lookahead_threads=2 / sliced_threads=0 / nr=0 / decimate=1 / interlaced=0 / bluray_compat=0 / constrained_intra=0 / fgo=0 / bframes=8 / b_pyramid=2 / b_adapt=2 / b_bias=0 / direct=3 / weightb=1 / open_gop=0 / weightp=2 / keyint=250 / keyint_min=23 / scenecut=40 / intra_refresh=0 / rc=crf / mbtree=0 / crf=17.5000 / qcomp=0.60 / qpmin=0 / qpmax=69 / qpstep=4 / ip_ratio=1.30 / pb_ratio=1.20 / aq=3:0.50
Language                    : English
Default                     : Yes
Forced                      : NoAudio #1
ID                          : 2
Format                      : AC-3
Format/Info                 : Audio Coding 3
Mode extension              : CM (complete main)
Format settings, Endianness : Big
Codec ID                    : A_AC3
Duration                    : 22mn 51s
Bit rate mode               : Constant
Bit rate                    : 640 Kbps
Channel(s)                  : 6 channels
Channel positions           : Front: L C R, Side: L R, LFE
Sampling rate               : 48.0 KHz
Bit depth                   : 16 bits
Compression mode            : Lossy
Stream size                 : 105 MiB (9%)
Title                       : AC3 5.1 @ 640 Kbps -  Одноголосый закадровый, Сыендук
Language                    : Russian
Default                     : Yes
Forced                      : NoAudio #2
ID                          : 3
Format                      : AC-3
Format/Info                 : Audio Coding 3
Mode extension              : CM (complete main)
Format settings, Endianness : Big
Codec ID                    : A_AC3
Duration                    : 22mn 51s
Bit rate mode               : Constant
Bit rate                    : 640 Kbps
Channel(s)                  : 6 channels
Channel positions           : Front: L C R, Side: L R, LFE
Sampling rate               : 48.0 KHz
Bit depth                   : 16 bits
Compression mode            : Lossy
Stream size                 : 105 MiB (9%)
Title                       : AC3 5.1 @ 640 Kbps
Language                    : English
Default                     : No
Forced                      : NoAudio #3
ID                          : 4
Format                      : AC-3
Format/Info                 : Audio Coding 3
Mode extension              : CM (complete main)
Format settings, Endianness : Big
Codec ID                    : A_AC3
Duration                    : 22mn 51s
Bit rate mode               : Constant
Bit rate                    : 192 Kbps
Channel(s)                  : 2 channels
Channel positions           : Front: L R
Sampling rate               : 48.0 KHz
Bit depth                   : 16 bits
Compression mode            : Lossy
Stream size                 : 31.4 MiB (3%)
Title                       : AC3 2.0 @ 192 Kbps - Commentary with Dan Harmon, Justin Roiland, Ryan Ridley and Wes Archer
Language                    : English
Default                     : No
Forced                      : NoText #1
ID                          : 5
Format                      : UTF-8
Codec ID                    : S_TEXT/UTF8
Codec ID/Info               : UTF-8 Plain Text
Title                       : SRT - Full
Language                    : Russian
Default                     : No
Forced                      : NoText #2
ID                          : 6
Format                      : UTF-8
Codec ID                    : S_TEXT/UTF8
Codec ID/Info               : UTF-8 Plain Text
Title                       : SRT - Full
Language                    : English
Default                     : No
Forced                      : NoText #3
ID                          : 7
Format                      : UTF-8
Codec ID                    : S_TEXT/UTF8
Codec ID/Info               : UTF-8 Plain Text
Title                       : SRT - Full SDH
Language                    : English
Default                     : No
Forced                      : NoMenu
00:00:00.000                : en:Chapter 1
00:02:29.358                : en:Chapter 2
00:03:01.181                : en:Chapter 3
00:11:13.506                : en:Chapter 4
00:21:31.957                : en:Chapter 5
00:22:02.905                : en:Chapter 6

Скриншот c названием мультфильма

Скриншоты

НЕ рекомендуется для семейного просмотра с детьми.
Яндекс.Метрика
Рейтинг@Mail.ru