Совершенные ангелочки (ТВ) / Perfect Little Angels (Тимоти Бонд / Timothy Bond) [1998 г., боевик, драма, семейный, DVDRip] MVO

 

Создавать темы 12-Авг-2016 03:39

-Совершенные ангелочки (ТВ) / Perfect Little Angels-- Производство: Канада, США, Michael/Finney Productions, Shavick Entertainment Inc., TVA International
Год выпуска: 1998 г.
Жанр: боевик, драма, семейный
Продолжительность: 01:30:41Мировая премьера: 8 ноября 1998
Дата выхода DVD: 25 марта 2004, «Videogram»
Перевод: Профессиональный (многоголосый, закадровый)
Режиссер: Тимоти Бонд / Timothy Bond-В ролях: Майкл Йорк, Джина Гершон, Дайэн Венора, Майкл Гэмбон, Стивен Тоболовски, Нестор Серрано, Таня Рейчерт, Брендан Фер, Майкл Пол Чэн, Деби Мэзар, Шерил Лэдд, Джоди Томпсон, Джад Павлюк-Описание: Элейн переезжает со своей дочерью-подростком в спокойный и миролюбивый район, о котором мечтала всегда. Идиллия, царящая в районе, кажется Элейн лучшим местом для воспитания Джастин.Но девочка обнаруживает, что атмосфера в районе слишком совершенна. И если ты не подчиняешься правилам, есть только один выход — смерть.-
Качество видео: DVDRip
Контейнер: AVI
Видео кодек: XviD
Аудио кодек: AC3
Видео: 704x528 (1.33:1), 25 fps, XviD build 73 ~1957 kbps avg, 0.21 bit/pixel
Аудио: 48 kHz, AC3 Dolby Digital, 2/0 (L,R) ch, ~192 kbps
Cубтитры: отсутствуют

Media Info

Общее
Полное имя : D:\D\Совершенные ангелочки\Perfect Little Angels.1998.DVDRip.[pirat.ca].avi
Формат : AVI
Формат/Информация : Audio Video Interleave
Размер файла : 1,37 Гбайт
Продолжительность : 1 ч. 30 м.
Общий поток : 2160 Кбит/сек
Название фильма : Perfect Little Angels.1998.DVDRip.[pirat.ca]
Программа кодирования : VirtualDubMod 1.5.10.2 (build 2540/release)Видео
Идентификатор : 0
Формат : MPEG-4 Visual
Профиль формата : Advanced [email protected]/* */
Параметр BVOP формата : 2
Параметр QPel формата : Нет
Параметр GMC формата : Без точки перехода
Параметр матрицы формата : Выборочная
Идентификатор кодека : XVID
Идентификатор кодека/Подсказка : XviD
Продолжительность : 1 ч. 30 м.
Битрейт : 1958 Кбит/сек
Ширина : 704 пикселя
Высота : 528 пикселей
Соотношение сторон : 4:3
Частота кадров : 25,000 кадров/сек
Цветовое пространство : YUV
Субдискретизация насыщенности : 4:2:0
Битовая глубина : 8 бит
Тип развёртки : Прогрессивная
Метод сжатия : С потерями
Бит/(Пиксели*Кадры) : 0.211
Размер потока : 1,24 Гбайт (91%)
Библиотека кодирования : XviD 73Аудио
Идентификатор : 1
Формат : AC-3
Формат/Информация : Audio Coding 3
Расширение режима : CM (complete main)
Параметр Endianness формата : Big
Идентификатор кодека : 2000
Продолжительность : 1 ч. 30 м.
Вид битрейта : Постоянный
Битрейт : 192 Кбит/сек
Каналы : 2 канала
Расположение каналов : Front: L R
Частота : 48,0 КГц
Частота кадров : 31,250 кадров/сек (1536 spf)
Метод сжатия : С потерями
Задержка видео : 8 мс.
Размер потока : 125 Мбайт (9%)
Выравнивание : Разделение по промежуткам
Продолжительность промежутка : 40 мс. (1,00 видеокадр)
Время предзагрузки промежутка : 500 мс.

Скриншот c названием фильма

Скриншоты

-Трейлер
Яндекс.Метрика
Рейтинг@Mail.ru