[ Сегодня на трекере фрилич! Идет свободное скачивание без начисления Download ]

Калия / Kaalia (Т.Л.В. Прасад / T.L.V Prasad) [1997 г., Боевик, WEB-DLRip] DVO [Den904 & DeadSno]

 

Создавать темы 12-Авг-2016 03:55

-Калия / Kaalia-- Производство: Индия, Bohra Bros Productions, Roopvati Productions
Год выпуска: 1997 г.
Жанр: Боевик
Продолжительность: 02:20:17Мировая премьера: 28 марта 1997
Перевод: Любительский (двухголосый, закадровый) [Den904 & DeadSno]
Режиссер: Т.Л.В. Прасад / T.L.V Prasad-В ролях: Дипти Бхатнагар, Митхун Чакраборти, Киран Кумар, Шиба, Джонни Левер, Рам Мохан, Мукеш Риши, Раза Мурад, Пайнтал, Рами Редди-Описание: Простенький, на первый взгляд, боевичок из «южной обоймы» Митхуна. Это история честного и неподкупного коллектора (чиновник, занимающийся взысканием задолженности) по имени Каличаран (Митхун Чакраборти). Два братца-негодяя Пратап Сингх (Мукеш Риши) и Бхавани Сингх (Рами Редди) пытались в свое время решить земельный вопрос с помощью взятки коллектору. Получив отказ, они «подставляют» Кали - теперь его обвиняют в убийстве министра внутренних дел. Поимку «убийцы» поручают лучшему инспектору департамента полиции - Приянке Синха (Шиба)...-
Качество видео: WEB-DLRip
Контейнер: AVI
Видео кодек: XviD
Аудио кодек: AC3
Видео: 704x304 (2.32:1), 25 fps, XviD build 50 ~1894 kbps avg, 0.35 bit/pixel
Аудио: 48 kHz, AC3 Dolby Digital, 2/0 (L,R) ch, ~192 kbps
Cубтитры: отсутствуют

Media Info

Общее
Полное имя : C:\герои 7\Калия\Kalia.1999.WEBRip.[pirat.ca].avi
Формат : AVI
Формат/Информация : Audio Video Interleave
Профиль формата : OpenDML
Размер файла : 2,05 Гбайт
Продолжительность : 2 ч. 20 м.
Общий поток : 2094 Кбит/сек
Название фильма : Kalia.1999.WEBRip.[pirat.ca]
Программа кодирования : VirtualDubMod 1.5.10.2 (build 2540/release)Видео
Идентификатор : 0
Формат : MPEG-4 Visual
Профиль формата : Advanced [email protected]/* */
Параметр BVOP формата : 1
Параметр QPel формата : Нет
Параметр GMC формата : Без точки перехода
Параметр матрицы формата : Выборочная
Идентификатор кодека : XVID
Идентификатор кодека/Подсказка : XviD
Продолжительность : 2 ч. 20 м.
Битрейт : 1889 Кбит/сек
Ширина : 704 пикселя
Высота : 304 пикселя
Соотношение сторон : 2,35:1
Частота кадров : 25,000 кадров/сек
Цветовое пространство : YUV
Субдискретизация насыщенности : 4:2:0
Битовая глубина : 8 бит
Тип развёртки : Прогрессивная
Метод сжатия : С потерями
Бит/(Пиксели*Кадры) : 0.353
Размер потока : 1,85 Гбайт (90%)
Библиотека кодирования : XviD 1.2.1 (UTC 2008-12-04)Аудио
Идентификатор : 1
Формат : AC-3
Формат/Информация : Audio Coding 3
Расширение режима : CM (complete main)
Параметр Endianness формата : Big
Идентификатор кодека : 2000
Продолжительность : 2 ч. 20 м.
Вид битрейта : Постоянный
Битрейт : 192 Кбит/сек
Каналы : 2 канала
Расположение каналов : Front: L R
Частота : 48,0 КГц
Частота кадров : 31,250 кадров/сек (1536 spf)
Метод сжатия : С потерями
Размер потока : 193 Мбайт (9%)
Выравнивание : Разделение по промежуткам
Продолжительность промежутка : 40 мс. (1,00 видеокадр)
Время предзагрузки промежутка : 500 мс.

Скриншот c названием фильма

Скриншоты

-Трейлер
Яндекс.Метрика
Рейтинг@Mail.ru