Ложное движение / Falsche Bewegung (Вим Вендерс / Wim Wenders) [1975 г., драма, BDRip-AVC, 720p] MVO [Кармен Видео] + Sub (Rus)

 

Создавать темы 12-Авг-2016 03:58

-Ложное движение / Falsche Bewegung-- Производство: Германия (ФРГ), Albatros Produktion, Solaris Film, Westdeutscher Rundfunk (WDR), Wim Wenders Stiftung
Год выпуска: 1975 г.
Жанр: драма
Продолжительность: 01:44:46Мировая премьера: 14 марта 1975
Дата выхода DVD: 1 ноября 2005, «Кармен Видео»
Перевод: Профессиональный (многоголосый, закадровый) [Кармен Видео]
Режиссер: Вим Вендерс / Wim Wenders-В ролях: Рюдигер Фоглер, Ганс Кристиан Блех, Ханна Шигулла, Настасья Кински, Петер Керн, Иван Десни, Марианне Хоппе, Лиза Кройцер-Описание: Начинающий писатель отправляется в путь, продолжая тем самым традицию великих романтиков и модных битников. Но после войны страна изменилась: она не похожа ни на прежнюю Германию, ни на современную Америку. Молодые ведут беседы о поэзии, пока старики тихо лезут в петлю.А странствующие акробаты уже не служат символом неприкаянности искусства. Теперь это парочка из нимфетки и недобитого наци. Все хотят вернуться к нормальной жизни, но в итоге сеют одиночество.-
Качество видео: BDRip-AVC
Контейнер: MKV
Стандарт разрешения: 720p
Видео кодек: MPEG4 AVC
Аудио кодек: AC3
Видео: 1196x720 (5:3), 23.976 fps, MPEG-4 AVC ~5 461 kbps avg
Аудио: 48.0 kHz, AC3 Dolby Digital, 2/0 (L,R) ch, ~192 kbps
Cубтитры: русские
Формат субтитров: softsub (SRT)
Доп. информация о субтитрах: включаемые

Награды

6 Федеральных премий ФРГ I степени — за режиссуру, сценарий, операторскую работу, актёрский ансамбль, музыку и монтаж (Петер Пшигодда — Peter Przygodda).

Рецензия

Неприкаянность«Ложное движение» — мой любимый фильм в творчестве Вима Вендерса. Не потому что это ранний, философский Вендерс, не потому что «Ложное движение» входит в состав его гениальной трилогии с Фоглером. По необъяснимым причинам, это кино меня сильно цепляет и находит отклик. Оно мне кажется совершенным, хотя я подозреваю, что совершенства не бывает. Могу иногда зевать на «Ложном движении» и теребить рукав, часто встаю покурить или перевожу взгляд на стену, но раз за разом оно проникает в меня все глубже, а монологи об одиночестве накрепко врезаются в память. В этом фильме Вим Вендерс дошел до сути неприкаянности и мизантропии, но представил эту суть не в виде интеллектуальной красивой головоломки, которая отчуждает ее от зрителя, а снял с нее украшающие маски и довел безысходность до самого конца, и даже дальше, за пределы самого фильма.Осталась позади Вторая Мировая Война, яростные и прекрасные шестидесятые, в индустриальном, закопченном мире романтика стала не востребована. Она превратилась в плоское подобие себя в виде мыльных опер и женских романов. Вим Вендерс берет за основу книгу великого романтика Иоганна Вольфганга Гете и с убийственной откровенностью демонстрирует, что путешествие в поисках себя — анахронизм, грозящий путешественникам не только еще большей потерянностью, но и полным крушением здоровой личности. Его путешественники раз за разом совершают ложные движения и еще глубже уходят в дебри одиночества, хотя по мотивам, должны достичь просветления.Рюдиггер Фоглер, мрачный актер, мимика которого без лишних пояснений выдает в нем человеконенавистника, отправляется в свое второе странствие под именем Вильгельма Мейстера. Будто реинкарнация… Он вновь писатель, но в самом начале творческого пути. Самоуверенный и замкнутый, Вильгельм знает все свои недостатки как личности и писателя, но на своем Пути он надеется эти недостатки преодолеть. Именно как Путь он воспринимает поездку в Бон, во время которого он должен пройти некое научение, сделающее его настоящим творцом. К нему присоединяются акробаты, должные нести радость, но на деле еще больше повергающие в уныние — бывший нацист, играющий на губной гармошке, и молоденькая немая девушка, умеющая жонглировать. Компания пополняется и задумчивой актрисой, и неудачливым, странным поэтом. Все они ведут беседы на темы сновидений, политики, одиночества, творчества и смерти довольно непринужденно и вдохновенно, но когда они сталкиваются с настоящей смертью и настоящим одиночеством, компания разбредается, осознав, что что-то сделали неправильно. Остается один Вильгельм, который раз за разом отгораживает себя ото всех. В начале и в конце, считая, что именно так становятся писателями.Всё уходит как сон, и эти люди опоздали. Они опоздали предотвратить войну, опоздали побороться за свободу, опоздали насладиться горными пейзажами, насквозь проникнутыми незримым тленом. Выросшие в послевоенное время, когда мир находился в подвешенном моральном состоянии, они сами оказались носителями отчужденности, и взаимодействуя друг с другом, вроде бы спасаясь от внутренних бездн, они погружаются в них еще больше, не способные помочь ни себе ни друг другу, выстраивающие мастерски стены из лишенных чувства разговоров об искусстве.По-моему, здесь есть точное определение одиночества, данное промышленником, у которого останавливаются герои. Он говорит, что одиночество — искусственное, внешнее чувство. Оно появляется, когда ты вспоминаешь прошлое и когда ты видишь других людей, будучи совсем один. Одиночеством надо упиваться, оно должно заставлять парить, утверждает промышленник, и, осознавая, что люди из его дома уйдут, как пришли, взмывает под потолок на веревке. Еще одна жертва ложных движений.Вим Вендерс в своем пятом фильме наиболее близко подобрался к невыразимому чувству неприкаянности, очертив его и выплеснув на экран. И недостаток фильма именно в его выразительности, депрессивных, но для меня прекраснейших цветов изображения и пейзажей, в метких, изымающих душу печальных диалогах, в омертвевших лицах Настасьи Кински и Рюдиггера Фоглера, в тревожной и проникновенной музыке Юргена Книпера. Этот гениальный фильм не каждому придется по вкусу из-за острого ощущения безысходности и монотонности. Но он один из лучших самых.10 из 10

Media Info

Общее
Уникальный идентификатор : 239399355694203817334953914169387345978 (0xB41AA387137BAAE2AA6364AA48A3683A)
Полное имя : J:\Ложное движение\Loznoe dvizenie.1975.BDRip.720p.[pirat.ca].mkv
Формат : Matroska
Версия формата : Version 2
Размер файла : 4,14 Гбайт
Продолжительность : 1 ч. 44 м.
Общий поток : 5655 Кбит/сек
Дата кодирования : UTC 2016-08-11 11:19:05
Программа кодирования : mkvmerge v5.3.0 ('I could have danced') built on Feb 9 2012 10:38:07
Библиотека кодирования : libebml v1.2.3 + libmatroska v1.3.0Видео
Идентификатор : 1
Формат : AVC
Формат/Информация : Advanced Video Codec
Профиль формата : [email protected]/* */
Параметр CABAC формата : Да
Параметр ReFrames формата : 9 кадров
Идентификатор кодека : V_MPEG4/ISO/AVC
Продолжительность : 1 ч. 44 м.
Битрейт : 5350 Кбит/сек
Ширина : 1196 пикселей
Высота : 720 пикселей
Соотношение сторон : 5:3
Режим частоты кадров : Постоянный
Частота кадров : 23,976 (24000/1001) кадра/сек
Цветовое пространство : YUV
Субдискретизация насыщенности : 4:2:0
Битовая глубина : 8 бит
Тип развёртки : Прогрессивная
Бит/(Пиксели*Кадры) : 0.259
Размер потока : 3,92 Гбайт (95%)
Библиотека кодирования : x264 core 146 r2538 121396c
Настройки программы : cabac=1 / ref=9 / deblock=1:-3:-3 / analyse=0x3:0x113 / me=umh / subme=10 / psy=1 / psy_rd=1.00:0.15 / mixed_ref=1 / me_range=32 / chroma_me=1 / trellis=2 / 8x8dct=1 / cqm=0 / deadzone=21,11 / fast_pskip=1 / chroma_qp_offset=-3 / threads=6 / lookahead_threads=1 / sliced_threads=0 / nr=0 / decimate=1 / interlaced=0 / bluray_compat=0 / constrained_intra=0 / bframes=10 / b_pyramid=2 / b_adapt=2 / b_bias=0 / direct=1 / weightb=1 / open_gop=0 / weightp=2 / keyint=230 / keyint_min=23 / scenecut=40 / intra_refresh=0 / rc_lookahead=40 / rc=crf / mbtree=0 / crf=18.5 / qcomp=0.60 / qpmin=0 / qpmax=69 / qpstep=4 / vbv_maxrate=40000 / vbv_bufsize=50000 / crf_max=0.0 / nal_hrd=none / filler=0 / ip_ratio=1.40 / pb_ratio=1.30 / aq=1:1.00
Язык : German
Default : Да
Forced : Нет
Statistics Tags Issue : mkvmerge v8.2.0 ('World of Adventure') 64bit 2016-08-09 03:23:53 / mkvmerge v5.3.0 ('I could have danced') built on Feb 9 2012 10:38:07 2016-08-11 11:19:05
FromStats_BitRate : 5460985
FromStats_Duration : 01:44:45.613000000
FromStats_FrameCount : 150704
FromStats_StreamSize : 4290704814Аудио
Идентификатор : 2
Формат : AC-3
Формат/Информация : Audio Coding 3
Расширение режима : CM (complete main)
Параметр Endianness формата : Big
Идентификатор кодека : A_AC3
Продолжительность : 1 ч. 44 м.
Вид битрейта : Постоянный
Битрейт : 192 Кбит/сек
Каналы : 2 канала
Расположение каналов : Front: L R
Частота : 48,0 КГц
Частота кадров : 31,250 кадров/сек (1536 spf)
Метод сжатия : С потерями
Размер потока : 144 Мбайт (3%)
Заголовок : MVO (Кармен видео)
Язык : Russian
Default : Да
Forced : Нет
Statistics Tags Issue : mkvmerge v8.2.0 ('World of Adventure') 64bit 2016-08-09 03:23:53 / mkvmerge v5.3.0 ('I could have danced') built on Feb 9 2012 10:38:07 2016-08-11 11:19:05
FromStats_BitRate : 192000
FromStats_Duration : 01:44:45.632000000
FromStats_FrameCount : 196426
FromStats_StreamSize : 150855168Текст
Идентификатор : 3
Формат : UTF-8
Идентификатор кодека : S_TEXT/UTF8
Идентификатор кодека/Информация : UTF-8 Plain Text
Заголовок : русские
Язык : Russian
Default : Нет
Forced : Нет
Statistics Tags Issue : mkvmerge v8.2.0 ('World of Adventure') 64bit 2016-08-09 03:23:53 / mkvmerge v5.3.0 ('I could have danced') built on Feb 9 2012 10:38:07 2016-08-11 11:19:05
FromStats_BitRate : 66
FromStats_Duration : 01:41:47.050000000
FromStats_FrameCount : 592
FromStats_StreamSize : 51064

Скриншот c названием фильма

Скриншоты

-Трейлер
Яндекс.Метрика
Рейтинг@Mail.ru