(Epic Folk, Viking Metal) Equilibrium - Armageddon (Limited Edition) (2CD) - 2016 [FLAC, image+.cue, lossless]

 

Создавать темы 19-Авг-2016 03:49

-Equilibrium - Armageddon - 2-CD Limited Edition-- Год издания: 2016
Страна: Starnberg, Bavaria, Germany
Жанр: Epic Folk, Viking Metal
Продолжительность: 01:40:37-Лейбл издания: Nuclear Blast Records
Тип альбома: Master
Страна-выпуска диска: 12 Aug 2016, Europe
Номер по каталогу: [27361 35890] Limited Edition, Digipak
Формат: FLAC
Битрейт аудио: lossless
Тип рипа: image+.cue
Наличие сканов в содержимом раздачи: да-Трэклист

CD 1 | 00:50:12

01. Sehnsucht
02. Erwachen
03. Katharsis
04. Heimat
05. Born to Be Epic
06. Zum Horizont
07. Rise Again
08. Prey
09. Helden
10. Koyaaniskatsi
11. Eternal Destination

CD 2 | 00:50:25

01. Sehnsucht (Instrumental)
02. Erwachen (Instrumental)
03. Katharsis (Instrumental)
04. Heimat (Instrumental)
05. Born to Be Epic (Instrumental)
06. Zum Horizont (Instrumental)
07. Rise Again (Instrumental)
08. Prey (Instrumental)
09. Helden (Instrumental)
10. Koyaaniskatsi (Instrumental)
11. Eernal Destination (Instrumental)
-

Лог создания рипа

CD 1

Код:
Exact Audio Copy V1.1 from 23. June 2015EAC extraction logfile from 15. August 2016, 17:35Equilibrium / ArmageddonUsed drive  : ATAPI   iHAS122   W   Adapter: 2  ID: 0Read mode               : Secure
Utilize accurate stream : Yes
Defeat audio cache      : Yes
Make use of C2 pointers : NoRead offset correction                      : 48
Overread into Lead-In and Lead-Out          : No
Fill up missing offset samples with silence : Yes
Delete leading and trailing silent blocks   : No
Null samples used in CRC calculations       : Yes
Used interface                              : Installed external ASPI interfaceUsed output format              : User Defined Encoder
Selected bitrate                : 1024 kBit/s
Quality                         : High
Add ID3 tag                     : No
Command line compressor         : C:\Program Files\FLAC\flac.exe
Additional command line options : -V -8 -T "Date=%year%" -T "Genre=%genre%" -T"COMMENT=Ripped by  Ilijan" -8 -V %source%TOC of the extracted CD     Track |   Start  |  Length  | Start sector | End sector
---------------------------------------------------------
1  |  0:00.00 |  2:58.01 |         0    |    13350
2  |  2:58.01 |  4:33.01 |     13351    |    33826
3  |  7:31.02 |  5:11.01 |     33827    |    57152
4  | 12:42.03 |  4:23.01 |     57153    |    76878
5  | 17:05.04 |  4:04.45 |     76879    |    95223
6  | 21:09.49 |  4:12.30 |     95224    |   114153
7  | 25:22.04 |  3:51.31 |    114154    |   131509
8  | 29:13.35 |  4:52.22 |    131510    |   153431
9  | 34:05.57 |  4:35.25 |    153432    |   174081
10  | 38:41.07 |  4:10.03 |    174082    |   192834
11  | 42:51.10 |  7:21.06 |    192835    |   225915Range status and errorsSelected range     Filename D:\ilко\Equilibrium - Armageddon.wav     Peak level 98.8 %
Extraction speed 3.7 X
Range quality 99.9 %
Test CRC 1AF91D7A
Copy CRC 1AF91D7A
Copy OKNo errors occurredAccurateRip summaryTrack  1  not present in database
Track  2  not present in database
Track  3  not present in database
Track  4  not present in database
Track  5  not present in database
Track  6  not present in database
Track  7  not present in database
Track  8  not present in database
Track  9  not present in database
Track 10  not present in database
Track 11  not present in databaseNone of the tracks are present in the AccurateRip databaseEnd of status report---- CUETools DB Plugin V2.1.6[CTDB TOCID: ttv_RjSnorJeiEkczTC7HzfsRVE-] found
Submit result: ttv_RjSnorJeiEkczTC7HzfsRVE- has been confirmed
Track | CTDB Status
1   | (19/20) Accurately ripped
2   | (19/20) Accurately ripped
3   | (19/20) Accurately ripped
4   | (19/20) Accurately ripped
5   | (19/20) Accurately ripped
6   | (19/20) Accurately ripped
7   | (19/20) Accurately ripped
8   | (19/20) Accurately ripped
9   | (19/20) Accurately ripped
10   | (19/20) Accurately ripped
11   | (19/20) Accurately ripped==== Log checksum ED659301E2D53E2EC5E756081DC80097280BC1A848FB9428F54CA85C00B3F6B9 ====

CD 2

Код:
Exact Audio Copy V1.1 from 23. June 2015EAC extraction logfile from 15. August 2016, 18:05Equilibrium / Armageddon (Instrumental)Used drive  : ATAPI   iHAS122   W   Adapter: 2  ID: 0Read mode               : Secure
Utilize accurate stream : Yes
Defeat audio cache      : Yes
Make use of C2 pointers : NoRead offset correction                      : 48
Overread into Lead-In and Lead-Out          : No
Fill up missing offset samples with silence : Yes
Delete leading and trailing silent blocks   : No
Null samples used in CRC calculations       : Yes
Used interface                              : Installed external ASPI interfaceUsed output format              : User Defined Encoder
Selected bitrate                : 1024 kBit/s
Quality                         : High
Add ID3 tag                     : No
Command line compressor         : C:\Program Files\FLAC\flac.exe
Additional command line options : -V -8 -T "Date=%year%" -T "Genre=%genre%" -T"COMMENT=Ripped by  Ilijan" -8 -V %source%TOC of the extracted CD     Track |   Start  |  Length  | Start sector | End sector
---------------------------------------------------------
1  |  0:00.00 |  2:58.39 |         0    |    13388
2  |  2:58.39 |  4:35.27 |     13389    |    34040
3  |  7:33.66 |  5:12.28 |     34041    |    57468
4  | 12:46.19 |  4:24.48 |     57469    |    77316
5  | 17:10.67 |  4:04.53 |     77317    |    95669
6  | 21:15.45 |  4:13.60 |     95670    |   114704
7  | 25:29.30 |  3:52.16 |    114705    |   132120
8  | 29:21.46 |  4:53.65 |    132121    |   154160
9  | 34:15.36 |  4:36.16 |    154161    |   174876
10  | 38:51.52 |  4:09.67 |    174877    |   193618
11  | 43:01.44 |  7:23.35 |    193619    |   226878Range status and errorsSelected range     Filename D:\ilко\Equilibrium - Armageddon (Instrumental).wav     Peak level 88.7 %
Extraction speed 3.8 X
Range quality 100.0 %
Test CRC BA3BEBA0
Copy CRC BA3BEBA0
Copy OKNo errors occurredAccurateRip summaryTrack  1  not present in database
Track  2  not present in database
Track  3  not present in database
Track  4  not present in database
Track  5  not present in database
Track  6  not present in database
Track  7  not present in database
Track  8  not present in database
Track  9  not present in database
Track 10  not present in database
Track 11  not present in databaseNone of the tracks are present in the AccurateRip databaseEnd of status report---- CUETools DB Plugin V2.1.6[CTDB TOCID: D0kwPwK8GZ3MTJZyg.qxRmcyITQ-] found
Submit result: D0kwPwK8GZ3MTJZyg.qxRmcyITQ- has been confirmed
Track | CTDB Status
1   | (7/7) Accurately ripped
2   | (7/7) Accurately ripped
3   | (7/7) Accurately ripped
4   | (7/7) Accurately ripped
5   | (7/7) Accurately ripped
6   | (7/7) Accurately ripped
7   | (7/7) Accurately ripped
8   | (7/7) Accurately ripped
9   | (7/7) Accurately ripped
10   | (7/7) Accurately ripped
11   | (7/7) Accurately ripped==== Log checksum 1685E478B53542B15DB1A5CD40FAA8F7D52511B94EB05F6A2EE63833CD8233B9 ====
-

Индексная карта (non-compilant .cue)

CD 1

REM GENRE "Epic Folk, Viking Metal"
REM DATE 2016
REM DISCID 830BC40B
REM COMMENT "2016 Europe, Limited Edition, Digipak"
PERFORMER "Equilibrium"
TITLE "Armageddon"
FILE "Equilibrium - Armageddon CD 1.flac" WAVE
TRACK 01 AUDIO
TITLE "Sehnsucht"
PERFORMER "Equilibrium"
INDEX 01 00:00:00
TRACK 02 AUDIO
TITLE "Erwachen"
PERFORMER "Equilibrium"
INDEX 01 02:58:01
TRACK 03 AUDIO
TITLE "Katharsis"
PERFORMER "Equilibrium"
INDEX 01 07:31:02
TRACK 04 AUDIO
TITLE "Heimat"
PERFORMER "Equilibrium"
INDEX 01 12:42:03
TRACK 05 AUDIO
TITLE "Born To Be Epic"
PERFORMER "Equilibrium"
INDEX 01 17:05:04
TRACK 06 AUDIO
TITLE "Zum Horizont"
PERFORMER "Equilibrium"
INDEX 01 21:09:49
TRACK 07 AUDIO
TITLE "Rise Again"
PERFORMER "Equilibrium"
INDEX 01 25:22:04
TRACK 08 AUDIO
TITLE "Prey"
PERFORMER "Equilibrium"
INDEX 01 29:13:35
TRACK 09 AUDIO
TITLE "Helden"
PERFORMER "Equilibrium"
INDEX 01 34:05:57
TRACK 10 AUDIO
TITLE "Koyaaniskatsi"
PERFORMER "Equilibrium"
INDEX 01 38:41:07
TRACK 11 AUDIO
TITLE "Eternal Destination"
PERFORMER "Equilibrium"
INDEX 01 42:51:10

CD 2

REM GENRE "Epic Folk, Viking Metal"
REM DATE 2016
REM DISCID 8B0BD10B
REM COMMENT "2016 Europe, Limited Edition, Digipak"
PERFORMER "Equilibrium"
TITLE "Armageddon (Instrumental)"
FILE "Equilibrium - Armageddon CD 2.flac" WAVE
TRACK 01 AUDIO
TITLE "Sehnsucht"
PERFORMER "Equilibrium"
INDEX 01 00:00:00
TRACK 02 AUDIO
TITLE "Erwachen"
PERFORMER "Equilibrium"
INDEX 01 02:58:39
TRACK 03 AUDIO
TITLE "Katharsis"
PERFORMER "Equilibrium"
INDEX 01 07:33:66
TRACK 04 AUDIO
TITLE "Heimat"
PERFORMER "Equilibrium"
INDEX 01 12:46:19
TRACK 05 AUDIO
TITLE "Born To Be Epic"
PERFORMER "Equilibrium"
INDEX 01 17:10:67
TRACK 06 AUDIO
TITLE "Zum Horizont"
PERFORMER "Equilibrium"
INDEX 01 21:15:45
TRACK 07 AUDIO
TITLE "Rise Again"
PERFORMER "Equilibrium"
INDEX 01 25:29:30
TRACK 08 AUDIO
TITLE "Prey"
PERFORMER "Equilibrium"
INDEX 01 29:21:46
TRACK 09 AUDIO
TITLE "Helden"
PERFORMER "Equilibrium"
INDEX 01 34:15:36
TRACK 10 AUDIO
TITLE "Koyaaniskatsi"
PERFORMER "Equilibrium"
INDEX 01 38:51:52
TRACK 11 AUDIO
TITLE "Eternal Destination"
PERFORMER "Equilibrium"
INDEX 01 43:01:44
-

Скриншот спектра частот

-
Яндекс.Метрика
Рейтинг@Mail.ru