Трудная мишень 2 / Hard Target 2 (2016) BDRip от GeneralFilm | Лицензия

 

Создавать темы 27-Авг-2016 07:39

Информация о фильме
Название: Трудная мишень 2
Оригинальное название: Hard Target 2
Год выхода: 2016
Жанр: Боевик, триллер
Режиссер: Роэль Рейн
В ролях: Скотт Эдкинс, Роберт Неппер, Рона Митра, Темуэра Моррисон, Адам Саундерс, Джэйми Тимони, Питер Харди, Шон Кинэн
О фильме:
Продолжение культового экшн-триллера 1993 года о подпольных игрищах, где проплаченные «охотники» травят, как дичь, похищенных людей. Новой мишенью становится опальный мастер боевых искусств, который соблазнился деньгами, даже не подозревая, на что подписывается. Но и его преследователи еще не знают, с кем связались.

Страна: США
Студия: Living Films, Universal 1440 Entertainment
Продолжительность: 01:43:33
Перевод: Дублированный | Лицензия Blu-Ray CEE
Файл
Кодек: XviD
Качество: BDRip
Видео: 704x400 (16:9), 23.976 fps, XviD Build 73, 1553 kbps avg, 0.230 bit/pixel
Аудио: 48.0 kHz, AC3 Dolby Digital, 5/1 (L C R, Side: L R, LFE) ch, 448 kbps

МедиаИнфо

General
Complete name : Hard.Target.2.2016.XviD.BDRip.by.GeneralFilm.avi
Format : AVI
Format/Info : Audio Video Interleave
File size : 1.45 GiB
Duration : 1h 43mn
Overall bit rate : 2 010 Kbps
Writing application : VirtualDubMod 1.5.10.3 | www.virtualdub-fr.org || (build 2550/release)
Writing library : VirtualDubMod build 2550/release
Video
ID : 0
Format : MPEG-4 Visual
Format profile : Advanced [email protected]
Format settings, BVOP : 1
Format settings, QPel : No
Format settings, GMC : No warppoints
Format settings, Matrix : Custom
Codec ID : XVID
Codec ID/Hint : XviD
Duration : 1h 43mn
Bit rate : 1 553 Kbps
Width : 704 pixels
Height : 400 pixels
Display aspect ratio : 16:9
Frame rate : 23.976 (23976/1000) fps
Color space : YUV
Chroma subsampling : 4:2:0
Bit depth : 8 bits
Scan type : Progressive
Compression mode : Lossy
Bits/(Pixel*Frame) : 0.230
Stream size : 1.12 GiB (77%)
Writing library : XviD 73
Audio
ID : 1
Format : AC-3
Format/Info : Audio Coding 3
Mode extension : CM (complete main)
Format settings, Endianness : Big
Codec ID : 2000
Duration : 1h 43mn
Bit rate mode : Constant
Bit rate : 448 Kbps
Channel(s) : 6 channels
Channel positions : Front: L C R, Side: L R, LFE
Sampling rate : 48.0 KHz
Frame rate : 31.250 fps (1536 spf)
Compression mode : Lossy
Stream size : 332 MiB (22%)
Alignment : Split accross interleaves
Interleave, duration : 42 ms (1.00 video frame)
Interleave, preload duratio : 500 ms

Скриншоты

Яндекс.Метрика
Рейтинг@Mail.ru