Конвоиры / Chasers (Деннис Хоппер / Dennis Hopper) [1994 г., комедия, приключения, WEB-DLRip] Dub [Варус-видео]

 

Создавать темы 03-Сен-2016 05:13

-Конвоиры / Chasers-- Производство: США, Morgan Creek Productions
Год выпуска: 1994 г.
Жанр: комедия, приключения
Продолжительность: 01:41:21Мировая премьера: 22 апреля 1994
Перевод: Профессиональный (полное дублирование) [Варус-видео]
Режиссер: Деннис Хоппер / Dennis Hopper-В ролях: Том Беренджер, Эрика Элениак, Уильям МакНамара, Гэри Бьюзи, Фредерик Форрест, Криспин Гловер, Марилу Хеннер, Дин Стокуэлл, Грэнд Л. Буш, Мэттью Глэйв, Битти Шрэм, Сеймур Кэссел, Деннис Хоппер-Описание: Офицер берегового патруля военно-морских сил Рок Рилли думал, что его уже ничем не удивишь. Его свежеиспеченному напарнику Эдди Дивейну тоже все осточертело, и он подумывает об увольнении из армии.
Но удивляться им все-таки пришлось, они почувствовали себя настоящими юнцами, когда повстречались с лейтенантом ВМС Тони Джонсон, красивой и вздорной особой, которая и была тем заключенным, кого они должны были доставить на базу.
Доставка должна проходить согласно заведенному порядку. Однако Тони намерена во что бы то ни стало вырваться на свободу…-
Качество видео: WEB-DLRip
Контейнер: AVI
Видео кодек: XviD
Аудио кодек: AC3
Видео: 688x384 (1.79:1), 23.976 fps, XviD build 73 ~1669 kbps avg, 0.26 bit/pixel
Аудио: 48 kHz, AC3 Dolby Digital, 2/0 (L,R) ch, ~192 kbps
Cубтитры: отсутствуют

Доп. информация

Внутренний сцены офисов ВМФ и склада были сняты на территории предприятия «Square D» в Колумбии, штат Южная Каролина. Сотрудники предприятия были использованы в роли статистов.
Корабль, который проходит под мостом в кульминационной сцене, это USS CARR (FFG 52).

Рецензия

Об этом фильме можно сказать многое. Он очень необычен, и вряд ли оставит кого-либо равнодушным. Он или нравится, или нет.Несмотря на то, что этот фильм в некоторой степени основан на «тюремной» тематике, в нем много доброго юмора, любви и счастья. Серьезный с одной стороны (ибо события, по сути, не шуточные), он одновременно снят очень весело и легко. Он смотрится на одном дыхании. Ибо каждый кадр этого фильма несет нам очередной сюрприз, и мы просто не можем оторваться от просмотра.Мы начинаем жить этим фильмом с того момента, как выясняется что заключенный, которого надо перевозить — на самом деле девушка. Именно тогда мы понимаем что скучать во время просмотра нам не придется. И верно: Тони Джонсон по ходу сериала придумывает все новые и новые способы побега, Эдди Дивейн меняет свое отношения к жизни и свои планы на будущее, а суровый Рок постепенно раскрывает свою истинную суть — доброго и общительного человека. Но все это происходит постепенно, и различные события либо стимулируют, либо затормаживают эти переходы.Несмотря на то, что фильм нам показывает всего два с небольшим дня из жизни героев, возникает ощущение, что прошло многим больше. И в этом гениальность сего творения кинематографии. Герои словно проживают целую жизнь, ибо они за эти 2 дня в корень меняются. Эта поездка несет им и сильные духовные перемены, и очень сильно меняет их жизнь физически. Меняет к лучшему.После просмотра на душе становится легко, а в теле чувствуется тепло. Американцы всегда умели снимать так, что берет за душу. И данный случай — не исключение. Советую всем посмотреть — не пожалеете.10 из 10

Media Info

Общее
Полное имя : D:\D\Конвоиры\Konvoiry.1994.WEBDLRip.[pirat.ca].avi
Формат : AVI
Формат/Информация : Audio Video Interleave
Размер файла : 1,32 Гбайт
Продолжительность : 1 ч. 41 м.
Общий поток : 1871 Кбит/сек
Программа кодирования : VirtualDubMod 1.5.10.3 (build 2550/release)Видео
Идентификатор : 0
Формат : MPEG-4 Visual
Профиль формата : Advanced [email protected]/* */
Параметр BVOP формата : 1
Параметр QPel формата : Нет
Параметр GMC формата : Без точки перехода
Параметр матрицы формата : Выборочная
Идентификатор кодека : XVID
Идентификатор кодека/Подсказка : XviD
Продолжительность : 1 ч. 41 м.
Битрейт : 1670 Кбит/сек
Ширина : 688 пикселей
Высота : 384 пикселя
Соотношение сторон : 16:9
Частота кадров : 23,976 (24000/1001) кадра/сек
Цветовое пространство : YUV
Субдискретизация насыщенности : 4:2:0
Битовая глубина : 8 бит
Тип развёртки : Прогрессивная
Метод сжатия : С потерями
Бит/(Пиксели*Кадры) : 0.264
Размер потока : 1,18 Гбайт (89%)
Библиотека кодирования : XviD 73Аудио
Идентификатор : 1
Формат : AC-3
Формат/Информация : Audio Coding 3
Расширение режима : CM (complete main)
Параметр Endianness формата : Big
Идентификатор кодека : 2000
Продолжительность : 1 ч. 41 м.
Вид битрейта : Постоянный
Битрейт : 192 Кбит/сек
Каналы : 2 канала
Расположение каналов : Front: L R
Частота : 48,0 КГц
Частота кадров : 31,250 кадров/сек (1536 spf)
Метод сжатия : С потерями
Размер потока : 139 Мбайт (10%)
Выравнивание : Разделение по промежуткам
Продолжительность промежутка : 42 мс. (1,00 видеокадр)
Время предзагрузки промежутка : 500 мс.

Скриншот c названием фильма

Скриншоты

-Трейлер

Создавать темы 03-Сен-2016 07:37 (спустя 2 часа 24 минуты)

Топик был перенесен из форума Зарубежные Фильмы (HD*Rip/LQ, DVDRip, SATRip, VHSRip) в форум Старые Зарубежные Фильмы (HD*Rip/LQ, DVDRip, SATRip, VHSRip)
T_O_M
Яндекс.Метрика
Рейтинг@Mail.ru