Макс: Приключения начинаются / Paddle Pop Adventures / Сезон: 1 / Серии: 22 из 22 (Сальвадор Симо / Salvador Simo) [2011 г., мультсериал, приключения, семейный, WEB-DLRip] Dub [Селена Интернешнл]

 

Создавать темы 03-Сен-2016 05:40

-Макс: Приключения начинаются / Paddle Pop Adventures-Сезон: 1 / Серии: 22 из 22- Производство: Индонезия, Таиланд, - Monk Studio, The
Режиссер: Сальвадор Симо / Salvador Simo
Жанр: мультсериал, приключения, семейный
Год выпуска: 2011 г.
Продолжительность: 00:13:00Мировая премьера: 1 ноября 2011
Перевод: Профессиональный (полное дублирование) [Селена Интернешнл]
Роли озвучивали: Говорящие животные-Описание: Давным-давно Темный Лорд вторгся в львиное королевство, чтобы заполучить три могущественных кристалла. Королю и королеве пришлось спрятать карту, показывающую путь к кристаллам, вместе со своим новорожденным сыном глубоко в джунглях. Но сейчас, 16 лет спустя, Темный Лорд нашел и выкрал карту. Теперь, лев со своими верными друзьями должен отправиться в опасное путешествие на летающем автомобиле «Феникс», чтобы помешать злому Лорду найти кристаллы и захватить власть над королевством. Но кто же победит?-Сэмпл КиноПоиск
Качество видео: WEB-DLRip
Контейнер: AVI
Видео кодек: XviD
Аудио кодек: AC3
Видео: 704x384 (1.83:1), 25 fps, XviD build 65 ~1987 kbps avg, 0.29 bit/pixel
Аудио: 48 kHz, AC3 Dolby Digital, 2/0 (L,R) ch, ~192 kbps
Cубтитры: отсутствуют

Доп. информация

Список серий:
01. Особенный день
02. Пророчество сбывается
03. Летучий корабль
04. Загадки пустыни
05. Долина слонов
06. Тайна старейшин
07. История Лины
08. Заколдованный лес
09. Воздушная гонка
10. Сила добра
11. Тернистый путь
12. Возрождение леса
13. Вынужденная посадка
14. Одинокий учёный
15. Ошибка Спайка
16. Гнев Бога вулкана
17. Затерянная деревня
18. Злодеи тоже боятся
19. Опасности Северных земель
20. Неожиданный поворот
21. Один за всех и все за одного
22. Битва за королевство

Media Info

Общее
Полное имя : F:\Макс\Max.Priklucheniya nachinautsya.2011.[pirat.ca]\01. Особенный день.avi
Формат : AVI
Формат/Информация : Audio Video Interleave
Размер файла : 203 Мбайт
Продолжительность : 12 м.
Общий поток : 2189 Кбит/сек
Программа кодирования : VirtualDubMod 1.5.10.3 | www.virtualdub-fr.org || (build 2550/release)Видео
Идентификатор : 0
Формат : MPEG-4 Visual
Профиль формата : Advanced [email protected]/* */
Параметр BVOP формата : 1
Параметр QPel формата : Нет
Параметр GMC формата : Без точки перехода
Параметр матрицы формата : Выборочная
Идентификатор кодека : XVID
Идентификатор кодека/Подсказка : XviD
Продолжительность : 12 м.
Битрейт : 1988 Кбит/сек
Ширина : 704 пикселя
Высота : 384 пикселя
Соотношение сторон : 1,85:1
Частота кадров : 25,000 кадров/сек
Цветовое пространство : YUV
Субдискретизация насыщенности : 4:2:0
Битовая глубина : 8 бит
Тип развёртки : Прогрессивная
Метод сжатия : С потерями
Бит/(Пиксели*Кадры) : 0.294
Размер потока : 185 Мбайт (91%)
Библиотека кодирования : XviD 65Аудио
Идентификатор : 1
Формат : AC-3
Формат/Информация : Audio Coding 3
Расширение режима : CM (complete main)
Параметр Endianness формата : Big
Идентификатор кодека : 2000
Продолжительность : 12 м.
Вид битрейта : Постоянный
Битрейт : 192 Кбит/сек
Каналы : 2 канала
Расположение каналов : Front: L R
Частота : 48,0 КГц
Частота кадров : 31,250 кадров/сек (1536 spf)
Метод сжатия : С потерями
Размер потока : 17,8 Мбайт (9%)
Выравнивание : Разделение по промежуткам
Продолжительность промежутка : 40 мс. (1,00 видеокадр)
Время предзагрузки промежутка : 500 мс.

Скриншот c названием мультфильма

Скриншоты

-Трейлер
Яндекс.Метрика
Рейтинг@Mail.ru