[ Сегодня на трекере фрилич! Идет свободное скачивание без начисления Download ]

Джейсон Х / Jason X (Джеймс Исаак / James Isaac) [2001 г., ужасы, фантастика, триллер, WEB-DL, 720p] MVO + Sub (Rus)

 

Создавать темы 03-Сен-2016 05:53

-Джейсон Х / Jason X-- Производство: США, Crystal Lake Entertainment Inc., Friday X Productions, New Line Cinema, Sean S. Cunningham Films, ...
Год выпуска: 2001 г.
Жанр: ужасы, фантастика, триллер
Продолжительность: 01:27:48Мировая премьера: 24 июля 2001
Дата выхода DVD: 7 октября 2003, «Premier Digital»
Перевод: Профессиональный (многоголосый, закадровый)
Режиссер: Джеймс Исаак / James Isaac-В ролях: Кэйн Ходдер, Лекса Дойг, Чак Кэмпбелл, Лиза Райдер, Питер Менса, Мелисса Эди, Дервин Джордан, Джонатан Поттс-Описание: Группа студентов-археологов из новой колонии «Земля-2» прилетает на Старую Землю, давно уже ставшую токсичной пустыней, чтобы исследовать древние останки прошлых цивилизаций. Студенты находят два замороженных криогеном тела, хранящихся около 400 лет в старом исследовательском центре.
Обрадованная своей находкой команда забирает тела с собой. Одно из тел принадлежит серийному убийце Джейсону Вурхису. Студенты не подозревают, с какой смертельной опасностью им предстоит столкнуться, хотя дальнейшее развитие событий не трудно предугадать. Джейсон самостоятельно реанимируется прямо на корабле и, быстро расправившись с небольшим отрядом спецназа, начинает охоту на студентов…-
Качество видео: WEB-DL
Контейнер: MKV
Стандарт разрешения: 720p
Видео кодек: MPEG4 AVC
Аудио кодек: AC3
Видео: AVC, 3594 kb/s, 1328x720, 25,000 fps
Аудио: AC3, 448 kb/s, 6 ch, 48,0 kHz
Cубтитры: русские
Формат субтитров: softsub (SRT)
Доп. информация о субтитрах: включаемые

Доп. информация

Джейсон Вурхиз (Кэйн Ходдер) за весь фильм ни разу не моргнул.
Это первый фильм из серии «Пятницы 13», который полагается на цифровые эффекты для сцен смертей и насилия.
Съёмки фильма проходили в период с 6 марта по 30 апреля 2000 года.
С Бетси Палмер велись переговоры на роль миссис Вурхис, но она отказалась.
Идея отправить Джейсона в космос принадлежит сценаристу фильма, Тодду Фармеру.
Фильм был подрезан всего на несколько секунд для получения рейтинга «R», что сделало его наименее цензурным из всей серии.
Сценарий фильма переписывался 30 раз.
Лекса Дойг играла женщину-андроида в фантастическом сериале «Андромеда» (2000-2005), в то время как Лиза Райдер по сюжету была человеком. В фильме «Джейсон Х» наоборот: Лекса была человеком, а Лиза — андроидом.

Рецензия

Этот фильм довольно сильно отличается от всех остальных серий «Пятница 13». Главным образом из-за того что все действие перенесено вместо привычного «домика в глухом лесу» на одинокий космический корабль и соответственно в далекое будущее.Ну, а суть действия все та же — Джейсон всех крамсает своим тесаком направо и налево. По моему мнению фильм не уступает в интересе и в зрелищности ни фильму «Фредди против Джейсона» ни более ранним частям, просто он ориентирован больше на поклонников фильмов про будущее, про космос, космические корабли.8 из 10

Media Info

Общее
Уникальный идентификатор : 221235979523116717100907363167155499393 (0xA6707FF12F5CC60789D63D47D1C3B181)
Полное имя : C:\герои 7\Джейсон X\Jason X.2001.WEB-DL.720p.[pirat.ca].mkv
Формат : Matroska
Версия формата : Version 2
Размер файла : 2,48 Гбайт
Продолжительность : 1 ч. 27 м.
Общий поток : 4044 Кбит/сек
Дата кодирования : UTC 2016-08-30 20:52:21
Программа кодирования : mkvmerge v5.3.0 ('I could have danced') built on Feb 9 2012 10:38:07
Библиотека кодирования : libebml v1.2.3 + libmatroska v1.3.0 / Lavf57.41.100
Обложка : Yes
Attachments : cover.jpg
ENCODING_INFO : DVD > MKV 720p / MPEG2 > X264 ABR 3700kbps Произвольный / AC3 > AC3 CBR 480kbps / AC3 > AC3 CBR 480kbps / AC3 > AC3 CBR 192kbpsВидео
Идентификатор : 1
Формат : AVC
Формат/Информация : Advanced Video Codec
Профиль формата : [email protected]/* */
Параметр CABAC формата : Да
Параметр ReFrames формата : 6 кадров
Идентификатор кодека : V_MPEG4/ISO/AVC
Продолжительность : 1 ч. 27 м.
Битрейт : 3516 Кбит/сек
Ширина : 1328 пикселей
Высота : 720 пикселей
Соотношение сторон : 1,85:1
Режим частоты кадров : Постоянный
Частота кадров : 25,000 кадров/сек
Цветовое пространство : YUV
Субдискретизация насыщенности : 4:2:0
Битовая глубина : 8 бит
Тип развёртки : Прогрессивная
Бит/(Пиксели*Кадры) : 0.147
Размер потока : 2,16 Гбайт (87%)
Язык : English
Default : Да
Forced : Нет
Statistics Tags Issue : mkvmerge v9.3.1 ('Mask Machine') 64bit 2016-08-30 10:46:16 / mkvmerge v5.3.0 ('I could have danced') built on Feb 9 2012 10:38:07 2016-08-30 20:52:21
FromStats_BitRate : 3594314
FromStats_Duration : 01:27:48.480000000
FromStats_FrameCount : 131712
FromStats_StreamSize : 2367071752Аудио
Идентификатор : 2
Формат : AC-3
Формат/Информация : Audio Coding 3
Расширение режима : CM (complete main)
Параметр Endianness формата : Big
Идентификатор кодека : A_AC3
Продолжительность : 1 ч. 27 м.
Вид битрейта : Постоянный
Битрейт : 448 Кбит/сек
Каналы : 6 каналов
Расположение каналов : Front: L C R, Side: L R, LFE
Частота : 48,0 КГц
Частота кадров : 31,250 кадров/сек (1536 spf)
Метод сжатия : С потерями
Размер потока : 281 Мбайт (11%)
Язык : Russian
Default : Да
Forced : Нет
Statistics Tags Issue : mkvmerge v9.3.1 ('Mask Machine') 64bit 2016-08-30 10:46:16 / mkvmerge v5.3.0 ('I could have danced') built on Feb 9 2012 10:38:07 2016-08-30 20:52:21
FromStats_BitRate : 448000
FromStats_Duration : 01:27:48.800000000
FromStats_FrameCount : 164650
FromStats_StreamSize : 295052800Текст
Идентификатор : 3
Формат : UTF-8
Идентификатор кодека : S_TEXT/UTF8
Идентификатор кодека/Информация : UTF-8 Plain Text
Язык : Russian
Default : Да
Forced : Нет
Statistics Tags Issue : mkvmerge v9.3.1 ('Mask Machine') 64bit 2016-08-30 10:46:16 / mkvmerge v5.3.0 ('I could have danced') built on Feb 9 2012 10:38:07 2016-08-30 20:52:21
FromStats_BitRate : 57
FromStats_Duration : 01:23:14.161000000
FromStats_FrameCount : 767
FromStats_StreamSize : 35663Меню
00:00:00.000 : :Глава 1
00:02:57.360 : :Глава 2
00:05:37.600 : :Глава 3
00:06:41.120 : :Глава 4
00:06:53.000 : :Глава 5
00:09:12.800 : :Глава 6
00:13:26.520 : :Глава 7
00:16:51.400 : :Глава 8
00:22:27.040 : :Глава 9
00:24:55.080 : :Глава 10
00:28:42.880 : :Глава 11
00:28:53.040 : :Глава 12
00:29:32.240 : :Глава 13
00:29:54.360 : :Глава 14
00:33:23.840 : :Глава 15
00:33:36.480 : :Глава 16
00:33:54.640 : :Глава 17
00:36:07.080 : :Глава 18
00:37:16.840 : :Глава 19
00:37:17.480 : :Глава 20
00:39:36.240 : :Глава 21
00:42:17.920 : :Глава 22
00:42:33.880 : :Глава 23
00:43:00.560 : :Глава 24
00:43:32.520 : :Глава 25
00:44:53.040 : :Глава 26
00:47:05.760 : :Глава 27
00:47:55.960 : :Глава 28
00:49:21.320 : :Глава 29
00:51:15.440 : :Глава 30
00:51:53.040 : :Глава 31
00:53:48.080 : :Глава 32
00:54:46.080 : :Глава 33
00:56:25.520 : :Глава 34
01:00:36.800 : :Глава 35
01:01:13.160 : :Глава 36
01:01:31.560 : :Глава 37
01:02:08.800 : :Глава 38
01:02:11.000 : :Глава 39
01:02:45.120 : :Глава 40
01:05:32.800 : :Глава 41
01:06:01.600 : :Глава 42
01:09:00.000 : :Глава 43
01:11:44.440 : :Глава 44
01:12:08.480 : :Глава 45
01:12:13.680 : :Глава 46
01:13:00.920 : :Глава 47
01:14:27.400 : :Глава 48
01:15:15.200 : :Глава 49
01:17:44.480 : :Глава 50
01:19:26.440 : :Глава 51
01:20:19.800 : :Глава 52
01:20:20.520 : :Глава 53
01:22:52.280 : :Глава 54
01:23:26.320 : :Глава 55
01:23:51.000 : :Глава 56

Скриншот c названием фильма

Скриншоты

-Трейлер
Яндекс.Метрика
Рейтинг@Mail.ru