Черри 2000 / Cherry 2000 (Стив Де Джарнатт / Steve De Jarnatt) [1987 г., фантастика, боевик, комедия, приключения, BDRip-AVC, 720p] MVO [ВГТРК] + DVO [Спб, 5 канал] + Sub (Rus)

 

Создавать темы 12-Сен-2016 03:39

-Черри 2000 / Cherry 2000-- Производство: США
Год выпуска: 1987 г.
Жанр: фантастика, боевик, комедия, приключения
Продолжительность: 01:38:33Мировая премьера: 12 ноября 1987
Перевод: Профессиональный (многоголосый, закадровый) [ВГТРК]
Перевод 2: Профессиональный (двухголосый, закадровый) [Спб, 5 канал]
Режиссер: Стив Де Джарнатт / Steve De Jarnatt-В ролях: Мелани Гриффит, Лоуренс Фишборн, Слай Смит, Фрэнсис МакКэффри, Аннабел Брукс, Джоан Ридделл, Кэти Грин, Роберт З`Дар, Тим Томерсон, Ховард Суэйн, Камерон Милцер, Дженнифер Майо, Джефф Ливайн, Бен Джонсон, Брайон Джеймс, Майкл С. Гвин, Памела Гидли, Гарри Кэри мл., Маршалл Белл, Дженнифер Бэлгобин, Дэвид Эндрюс-Описание: 2017 год, пустыни юго-западной части США. Гриффит играет женщину-наемника. Ей заплатили за то, чтобы она нашла и разгромила склад роботов, которыми управляют опасные психопаты-террористы.-
Качество видео: BDRip-AVC
Контейнер: MKV
Стандарт разрешения: 720p
Видео кодек: MPEG4 AVC
Аудио кодек: AC3
Видео: MPEG-4 AVC, 4863 Кбит/с, 1280х694, 23,976 кадра/с
Аудио: AC3, 192 kbps, 2 ch, 48 kHz
Аудио #2: AC3, 192 kbps, 2 ch, 48 kHz
Cубтитры: русские
Формат субтитров: softsub (SRT)
Доп. информация о субтитрах: включаемые

Рецензия

Просто чудесный фильм старой школы!Фильму уже более 20 лет, а он смотрится на одном дыхании. Чувствуется старая школа! Таких фильмов уже давно не делают… Всё заполонили спецэффекты, дешёвые сценарии и гламурная пошлость. Это очень грустно…Черри 2000 — это очень интересный, увлекательный сюжет, качественная постановка, режиссура и подбор актёров. Всё продумано и сделано с душой. Именно с душой! Трогательная, потрясающе красивая и завораживающая музыка прекрасного композитора — Бэзила Полидуриса!Как приятно смотреть такие старые и добрые, качественные фильмы! Душа отдыхает и радуется. Создаётся впечатление, что раньше режиссёры подходили к каждому фильму, как к искусству, вкладывали всё: свою душу, знания и труд, чтобы создать что-то феерическое, великолепное и очень интересное на века! И это чудесно! Именно такое впечатление и ощущение остаётся после просмотра этого фильма! Очень нравится концовка — настолько трогательно и глубоко!Я фильму ставлю оценку 10 из 10.Пусть это не шедевр (с точки зрения глубины сюжета и смысла), но классика жанра однозначно!

Media Info

Общее
Уникальный идентификатор : 193671169835625247537331614074119009919 (0x91B3B5E5A0BDF2CAA1863ABB4886367F)
Полное имя : J:\Cherry 2000\Vishnja 2000.1987.BDRip.720p.[pirat.ca].mkv
Формат : Matroska
Версия формата : Version 2
Размер файла : 3,70 Гбайт
Продолжительность : 1 ч. 38 м.
Общий поток : 5368 Кбит/сек
Дата кодирования : UTC 2016-09-11 15:22:57
Программа кодирования : mkvmerge v5.3.0 ('I could have danced') built on Feb 9 2012 10:38:07
Библиотека кодирования : libebml v1.2.3 + libmatroska v1.3.0Видео
Идентификатор : 1
Формат : AVC
Формат/Информация : Advanced Video Codec
Профиль формата : [email protected]/* */
Параметр CABAC формата : Да
Параметр ReFrames формата : 9 кадров
Идентификатор кодека : V_MPEG4/ISO/AVC
Продолжительность : 1 ч. 38 м.
Битрейт : 4877 Кбит/сек
Ширина : 1280 пикселей
Высота : 694 пикселя
Соотношение сторон : 1,85:1
Режим частоты кадров : Постоянный
Частота кадров : 23,976 (24000/1001) кадра/сек
Цветовое пространство : YUV
Субдискретизация насыщенности : 4:2:0
Битовая глубина : 8 бит
Тип развёртки : Прогрессивная
Бит/(Пиксели*Кадры) : 0.229
Размер потока : 3,36 Гбайт (91%)
Библиотека кодирования : x264 core 146 r2538 121396c
Настройки программы : cabac=1 / ref=9 / deblock=1:-3:-3 / analyse=0x3:0x113 / me=umh / subme=10 / psy=1 / psy_rd=1.00:0.15 / mixed_ref=1 / me_range=32 / chroma_me=1 / trellis=2 / 8x8dct=1 / cqm=0 / deadzone=21,11 / fast_pskip=1 / chroma_qp_offset=-3 / threads=6 / lookahead_threads=1 / sliced_threads=0 / nr=0 / decimate=1 / interlaced=0 / bluray_compat=0 / constrained_intra=0 / bframes=12 / b_pyramid=2 / b_adapt=2 / b_bias=0 / direct=1 / weightb=1 / open_gop=0 / weightp=2 / keyint=230 / keyint_min=23 / scenecut=40 / intra_refresh=0 / rc_lookahead=40 / rc=crf / mbtree=0 / crf=20.1 / qcomp=0.60 / qpmin=0 / qpmax=69 / qpstep=4 / vbv_maxrate=40000 / vbv_bufsize=50000 / crf_max=0.0 / nal_hrd=none / filler=0 / ip_ratio=1.40 / pb_ratio=1.30 / aq=1:1.00
Язык : English
Default : Да
Forced : Нет
Statistics Tags Issue : mkvmerge v8.2.0 ('World of Adventure') 64bit 2015-08-19 08:39:39 / mkvmerge v5.3.0 ('I could have danced') built on Feb 9 2012 10:38:07 2016-09-11 15:22:57
FromStats_BitRate : 4982772
FromStats_Duration : 01:38:31.990000000
FromStats_FrameCount : 141746
FromStats_StreamSize : 3682262326Аудио #1
Идентификатор : 2
Формат : AC-3
Формат/Информация : Audio Coding 3
Расширение режима : CM (complete main)
Параметр Endianness формата : Big
Идентификатор кодека : A_AC3
Продолжительность : 1 ч. 38 м.
Вид битрейта : Постоянный
Битрейт : 192 Кбит/сек
Каналы : 2 канала
Расположение каналов : Front: L R
Частота : 48,0 КГц
Частота кадров : 31,250 кадров/сек (1536 spf)
Метод сжатия : С потерями
Размер потока : 135 Мбайт (4%)
Заголовок : MVO (ВГТРК)
Язык : Russian
Default : Да
Forced : Нет
Statistics Tags Issue : mkvmerge v8.2.0 ('World of Adventure') 64bit 2015-08-19 08:39:39 / mkvmerge v5.3.0 ('I could have danced') built on Feb 9 2012 10:38:07 2016-09-11 15:22:57
FromStats_BitRate : 192000
FromStats_Duration : 01:38:33.024000000
FromStats_FrameCount : 184782
FromStats_StreamSize : 141912576Аудио #2
Идентификатор : 3
Формат : AC-3
Формат/Информация : Audio Coding 3
Расширение режима : CM (complete main)
Параметр Endianness формата : Big
Идентификатор кодека : A_AC3
Продолжительность : 1 ч. 38 м.
Вид битрейта : Постоянный
Битрейт : 192 Кбит/сек
Каналы : 2 канала
Расположение каналов : Front: L R
Частота : 48,0 КГц
Частота кадров : 31,250 кадров/сек (1536 spf)
Метод сжатия : С потерями
Размер потока : 135 Мбайт (4%)
Заголовок : DVO (Спб, 5 канал)
Язык : Russian
Default : Нет
Forced : Нет
Statistics Tags Issue : mkvmerge v8.2.0 ('World of Adventure') 64bit 2015-08-19 08:39:39 / mkvmerge v5.3.0 ('I could have danced') built on Feb 9 2012 10:38:07 2016-09-11 15:22:57
FromStats_BitRate : 192000
FromStats_Duration : 01:38:33.024000000
FromStats_FrameCount : 184782
FromStats_StreamSize : 141912576Текст
Идентификатор : 4
Формат : UTF-8
Идентификатор кодека : S_TEXT/UTF8
Идентификатор кодека/Информация : UTF-8 Plain Text
Заголовок : русский
Язык : Russian
Default : Нет
Forced : Нет
Statistics Tags Issue : mkvmerge v8.2.0 ('World of Adventure') 64bit 2015-08-19 08:39:39 / mkvmerge v5.3.0 ('I could have danced') built on Feb 9 2012 10:38:07 2016-09-11 15:22:57
FromStats_BitRate : 63
FromStats_Duration : 01:32:24.919000000
FromStats_FrameCount : 929
FromStats_StreamSize : 43910

Скриншот c названием фильма

Скриншоты

Трейлер
Яндекс.Метрика
Рейтинг@Mail.ru