Один из нас / One of Us / Сезон: 1 / Серии: 4 из 4 (Уильям МакГрегор / William McGregor) [2016 г., триллер, HDTVRip] MVO (ColdFilm)

 

Создавать темы 16-Сен-2016 02:51

-Один из нас / One of Us-- Производство: Великобритания, BBC Scotland
Жанр: триллер
Год выпуска: 2016 г.
Продолжительность: 01:00:00Мировая премьера: 23 августа 2016
Перевод: Любительский (многоголосый, закадровый) [ColdFilm]
Режиссер: Уильям МакГрегор / William McGregor-В ролях: Джорджина Кэмпбелл, Джозеф Демпси, Кейт Дики, Эдриен Эдмондсон, Стив Эветс, Лора Фрейзер, Гари Льюис, Джон Линч-Описание: В отдаленном сельском районе Шотландии происходит ужасающее двойное убийство, которое угрожает окончательно разрушить жизни двух семейств, бок о бок проживших столько лет...-
Качество видео: HDTVRip
Контейнер: AVI
Видео кодек: XviD
Аудио кодек: MP3
Видео: 720x400 (1.80:1), 25 fps, XviD build 64 ~804 kbps avg, 0.11 bit/pixel
Аудио: 48 kHz, MPEG Layer 3, 2 ch, ~128.00 kbps avg
Cубтитры: отсутствуют

Media Info

Общее
Полное имя : C:\герои 7\Один из нас\Odin iz nas.S01.2016.[pirat.ca]\One.of.Us.S01E01.400p.HDTV.ColdFIlm.avi
Формат : AVI
Формат/Информация : Audio Video Interleave
Размер файла : 395 Мбайт
Продолжительность : 58 м.
Общий поток : 946 Кбит/сек
Название фильма : One.of.Us.S01E01.400p.HDTV.ColdFIlm
Программа кодирования : Lavf54.63.104Видео
Идентификатор : 0
Формат : xvid
Идентификатор кодека : xvid
Продолжительность : 58 м.
Битрейт : 805 Кбит/сек
Ширина : 720 пикселей
Высота : 400 пикселей
Соотношение сторон : 16:9
Частота кадров : 25,000 кадров/сек
Тип развёртки : Прогрессивная
Бит/(Пиксели*Кадры) : 0.112
Размер потока : 336 Мбайт (85%)Аудио
Идентификатор : 1
Формат : MPEG Audio
Версия формата : Version 1
Профиль формата : Layer 3
Режим : Joint stereo
Расширение режима : MS Stereo
Идентификатор кодека : 55
Идентификатор кодека/Подсказка : MP3
Продолжительность : 58 м.
Вид битрейта : Постоянный
Битрейт : 128 Кбит/сек
Каналы : 2 канала
Частота : 48,0 КГц
Метод сжатия : С потерями
Размер потока : 53,4 Мбайт (14%)
Выравнивание : Соединение по промежуткам
Продолжительность промежутка : 24 мс. (0,60 видеокадр)

Скриншот c названием фильма

Скриншоты

Трейлер

Яндекс.Метрика
Рейтинг@Mail.ru