Постал / Postal (Уве Болл / Uwe Boll) [2007 г., боевик, триллер, комедия, BDRip-AVC] MVO [CP-Digital] + Sub (Rus)

 

Создавать темы 21-Сен-2016 03:33

-Постал / Postal-- Производство: США, Канада, Германи, Boll Kino Beteiligungs GmbH & Co. KG, Pitchblack Pictures
Год выпуска: 2007 г.
Жанр: боевик, триллер, комедия
Продолжительность: 01:42:18Мировая премьера: 21 июля 2007
Дата выхода DVD: 13 ноября 2008, «CP-Digital»
Перевод: Профессиональный (многоголосый, закадровый) [CP-Digital]
Режиссер: Уве Болл / Uwe Boll-В ролях: Зак Уорд, Дэйв Фоли, Крис Коппола, Джеки Тон, Дж.К. Симмонс, Ральф Мёллер, Верн Тройер, Крис Спенсер, Ларри Томас, Майкл Паре-Описание: По мотивам компьютерной трэш-игры Postal. В городе Парадиз строят огромный развлекательный центр, и в один из магазинов завозят партии игрушек Крочи. Эти игрушки в форме задницы становятся объектом пристального внимания двух группировок.
Террористы хотят выкрасть их, чтобы зашить в каждую штамм вируса птичьего гриппа. А банда хиппи хочет украсть Крочи, чтобы заработать. Между этими двумя «компаниями» мечется невезучий чувак, у которого в жизни все плохо. В какой-то момент парню все надоедает, и он устраивает в Парадизе «веселую» кровавую баню…-
Качество видео: BDRip-AVC
Контейнер: MKV
Видео кодек: MPEG4 AVC
Аудио кодек: AC3
Видео: 720x400, 948 kbps, 23,976 fps, 0,137 Bits/(Pixel*Frame)
Аудио: AC-3, 6 ch, 448 kbps, 48,0 kHz
Cубтитры: русские
Формат субтитров: softsub (SRT)
Доп. информация о субтитрах: включаемые

Доп. информация

Фильм снят по мотивам серии компьютерных игр «Postal» (1997 — н. в., Running With Scissors).
На роль дяди Дэйва Болл хотел взять Рона Перлмана, но в итоге остановил свой выбор на Дэйве Фоли.

Рецензия

Гений Уве Болла.Постал — это весёлая сатирическая комедия. Уве Болл постарался на славу, экранизировав одну из самых скандальных игр. В этом фильме есть всё: начиная от религиозных сект и, заканчивая мусульманскими террористами. Тут пародируются плохие полицейские, неверные жены, президент Джордж Буш, и даже сам Уве Болл.Все события вертятся вокруг обычного американского парня (Зак Уорд), который просто пытается жить нормально, но другие ему мешают. На своем пути он встречает придирчивых начальников, равнодушных работников биржи труда, жестоких хулиганов.В итоге он присоединяется к своему дяде Дейву (Дейв Фоли). Вместе они пытаются украсть партию кукл дрочукл, составляя «гениальный» план. Но вот незадача! С ними начинает соперничать Талибан во главе с Осамой Бин Ладеном.После всего этого круговорота бедный парень превращается в настоящего зверя — Психованного Чувака. Веселая атмосфера, а также перевод Гоблина не дадут вам скучать. В фильме отражается суровая американская действительность посредством черного, даже очень черного, юмора. Блестящая комедия, в которой Уве Болл высмеял даже себя.Рассказывать больше нет смысла, нужно посмотреть его, чтобы убедиться насколько он хорош!10 из 10

Media Info

Общее
Уникальный идентификатор : 249133478083465694996143012953231027369 (0xBB6D5CD0AB2372E393920C6CE36D6CA9)
Полное имя : E:\Постал\Postal.2007.BDRip-AVC.[pirat.ca].mkv
Формат : Matroska
Версия формата : Version 2
Размер файла : 1022 Мбайт
Продолжительность : 1 ч. 42 м.
Общий поток : 1397 Кбит/сек
Название фильма : Постал / Postal (2007)
Дата кодирования : UTC 2016-09-19 12:07:53
Программа кодирования : mkvmerge v5.3.0 ('I could have danced') built on Feb 9 2012 10:38:07
Библиотека кодирования : libebml v1.2.3 + libmatroska v1.3.0Видео
Идентификатор : 1
Формат : AVC
Формат/Информация : Advanced Video Codec
Профиль формата : [email protected]/* */
Параметр CABAC формата : Да
Параметр ReFrames формата : 14 кадров
Идентификатор кодека : V_MPEG4/ISO/AVC
Продолжительность : 1 ч. 42 м.
Битрейт : 948 Кбит/сек
Ширина : 720 пикселей
Высота : 400 пикселей
Соотношение сторон : 16:9
Режим частоты кадров : Постоянный
Частота кадров : 23,976 (24000/1001) кадра/сек
Цветовое пространство : YUV
Субдискретизация насыщенности : 4:2:0
Битовая глубина : 8 бит
Тип развёртки : Прогрессивная
Бит/(Пиксели*Кадры) : 0.137
Размер потока : 674 Мбайт (66%)
Библиотека кодирования : x264 core 146 r2538 121396c
Настройки программы : cabac=1 / ref=14 / deblock=1:-3:-3 / analyse=0x3:0x113 / me=umh / subme=11 / psy=1 / psy_rd=1.00:0.00 / mixed_ref=1 / me_range=32 / chroma_me=1 / trellis=2 / 8x8dct=1 / cqm=0 / deadzone=21,11 / fast_pskip=0 / chroma_qp_offset=-2 / threads=12 / lookahead_threads=3 / sliced_threads=0 / nr=0 / decimate=1 / interlaced=0 / bluray_compat=0 / constrained_intra=0 / bframes=16 / b_pyramid=2 / b_adapt=2 / b_bias=0 / direct=3 / weightb=1 / open_gop=0 / weightp=2 / keyint=250 / keyint_min=23 / scenecut=40 / intra_refresh=0 / rc_lookahead=60 / rc=2pass / mbtree=1 / bitrate=948 / ratetol=1.0 / qcomp=0.70 / qpmin=0 / qpmax=69 / qpstep=4 / cplxblur=20.0 / qblur=0.5 / vbv_maxrate=14000 / vbv_bufsize=14000 / nal_hrd=none / filler=0 / ip_ratio=1.40 / aq=1:1.00
Default : Да
Forced : Нет
Statistics Tags Issue : mkvmerge v7.1.0 ('Good Love') 64bit built on Jul 27 2014 13:06:55 2015-07-16 14:47:59 / mkvmerge v5.3.0 ('I could have danced') built on Feb 9 2012 10:38:07 2016-09-19 12:07:53
FromStats_BitRate : 947554
FromStats_Duration : 01:42:18.049000000
FromStats_FrameCount : 147166
FromStats_StreamSize : 727017047Аудио
Идентификатор : 2
Формат : AC-3
Формат/Информация : Audio Coding 3
Расширение режима : CM (complete main)
Параметр Endianness формата : Big
Идентификатор кодека : A_AC3
Продолжительность : 1 ч. 42 м.
Вид битрейта : Постоянный
Битрейт : 448 Кбит/сек
Каналы : 6 каналов
Расположение каналов : Front: L C R, Side: L R, LFE
Частота : 48,0 КГц
Частота кадров : 31,250 кадров/сек (1536 spf)
Метод сжатия : С потерями
Размер потока : 328 Мбайт (32%)
Заголовок : Многоголосый, CP-Digital
Язык : Russian
Default : Нет
Forced : НетТекст
Идентификатор : 3
Формат : UTF-8
Идентификатор кодека : S_TEXT/UTF8
Идентификатор кодека/Информация : UTF-8 Plain Text
Заголовок : Rus
Язык : Russian
Default : Нет
Forced : НетМеню
00:00:00.000 : :01. Opening Credits
00:07:51.304 : :02. Gluttco
00:13:28.390 : :03. Uncle Dave
00:18:52.923 : :04. Grind Zero
00:28:20.323 : :05. Taliban TV
00:37:09.435 : :06. Lil Germany
00:52:04.830 : :07. Social Worker
01:02:12.478 : :08. Avian Flu
01:05:25.504 : :09. Seminar
01:14:21.707 : :10. Armed To The Teeth
01:25:47.559 : :11. Help
01:32:03.726 : :12. End Credits

Скриншот c названием фильма

Скриншоты

Трейлер

Яндекс.Метрика
Рейтинг@Mail.ru