Роботы-убийцы! Разрушить и сжечь / The Killer Robots! Crash and Burn (Сэм Гаффин / Sam Gaffin) [2016 г., фантастика, фэнтези, боевик, комедия, приключения, ТРЭШ!, WEB-DLRip] MVO

 

Создавать темы 26-Сен-2016 06:24

-Роботы-убийцы! Разрушить и сжечь / The Killer Robots! Crash and Burn-- Производство: США
Год выпуска: 2016 г.
Жанр: фантастика, фэнтези, боевик, комедия, приключения, ТРЭШ!
Продолжительность: 01:45:05Мировая премьера: 15 июля 2016
Перевод: Любительский (многоголосый, закадровый)
Режиссер: Сэм Гаффин / Sam Gaffin-В ролях: Шон С. Филлипс, Дженна Хелльмут, Майкл МакГоун, Хесус Родригес, Сэм Гаффин-Описание: Боевых роботов послали на задание найти и активировать машину, которая изменит жизнь людей.-
Качество видео: WEB-DLRip
Контейнер: AVI
Видео кодек: XviD
Аудио кодек: AC3
Видео: 720x400 (1.80:1), 47.952 fps, XviD build 50 ~1777 kbps avg, 0.13 bit/pixel
Аудио: 48 kHz, AC3 Dolby Digital, 2/0 (L,R) ch, ~192 kbps
Cубтитры: отсутствуют

Рецензия

Самые добрые роботы-убийцыДля начала позвольте нагнать немного пафоса. Вы когда-нибудь задумывались над тем, что именно привлекает вас в том или ином фильме? В качестве ответа можно, конечно, перечислить все эти стандартные клише про игру актеров, качество операторской работы, грамотный сценарий и прочую чушь, о которой вечно талдычат «профессиональные критики». На самом деле всё это не влияет ровным счетом ни на что, и вы вынуждены будете признать это, если по-настоящему честны с собой.Цель любого настоящего произведения искусства — так или иначе победить время. Этим были озабочены все творцы, начиная с Гомера (если таковой исторический персонаж действительно существовал) и заканчивая художниками наших дней. Оставить после себя нечто, что будет казаться важным и через много лет. Это искусство.Но есть и другой способ победы над временем — попытаться перенести зрителя (читателя, слушателя) в иную эпоху, заставить забыть о возрасте, вызвать в нем чувства, угасшие много лет назад. Этот способ, пожалуй, посложнее первого, но оттого и более почетный. Именно он применен в фильме под названием «The Killer Robots! Crash and Burn», который представляет из себя машину времени, готовую прямо сейчас отправить вас в детство на сто минут. Каждая из этих минут — маленький праздник разрушения, с разлетающимися в разные стороны кибернетическими конечностями, взрывами, безумными схватками безумных механизмов в безумных декорациях киберпанковского ада. Если вы выросли в 80-е или 90-е, каждая из этих минут будет дарить вам сладкую радость узнавания. Как будто ваши детские игрушки ожили (вы ведь когда-то мечтали об этом, правда?) и устроили тотальный холокост с бесконечными прибаутками под скрежет примитивной электронной музыки.Сюжет картины — незамысловатый квест, визуальная составляющая — причудливая смесь «Тетсуо» и «Маппет-шоу». Искренняя наивность фильма цепляет с первых минут. Должно быть, именно такой фильм мог бы снять 12-летний ребенок, помешанный на монстрах и роботах (во всяком случае, я в детстве точно мечтал о чем-то подобном).10 из 10

Media Info

oбщее
Полное имя : F:\Роботы-убийцы!\The Killer Robots.Crash and Burn.2016.WEB-DLRip.[pirat.ca].avi
Формат : AVI
Формат/Информация : Audio Video Interleave
Профиль формата : OpenDML
Размер файла : 1,45 Гбайт
Продолжительность : 1 ч. 45 м.
Общий поток : 1982 Кбит/сек
Программа кодирования : Lavf54.59.107Видео
Идентификатор : 0
Формат : MPEG-4 Visual
Профиль формата : Advanced [email protected]/* */
Параметр BVOP формата : 2
Параметр QPel формата : Нет
Параметр GMC формата : Без точки перехода
Параметр матрицы формата : Default (MPEG)
Идентификатор кодека : XVID
Идентификатор кодека/Подсказка : XviD
Продолжительность : 1 ч. 45 м.
Битрейт : 1773 Кбит/сек
Ширина : 720 пикселей
Высота : 400 пикселей
Соотношение сторон : 16:9
Частота кадров : 47,952 кадров/сек
Частота кадров в оригинале : 23,976 (24000/1001) кадра/сек
Цветовое пространство : YUV
Субдискретизация насыщенности : 4:2:0
Битовая глубина : 8 бит
Тип развёртки : Прогрессивная
Метод сжатия : С потерями
Бит/(Пиксели*Кадры) : 0.128
Размер потока : 1,30 Гбайт (89%)
Библиотека кодирования : XviD 1.2.1 (UTC 2008-12-04)Аудио
Идентификатор : 1
Формат : AC-3
Формат/Информация : Audio Coding 3
Расширение режима : CM (complete main)
Параметр Endianness формата : Big
Идентификатор кодека : 2000
Продолжительность : 1 ч. 45 м.
Вид битрейта : Постоянный
Битрейт : 192 Кбит/сек
Каналы : 2 канала
Расположение каналов : Front: L R
Частота : 48,0 КГц
Частота кадров : 31,250 кадров/сек (1536 spf)
Битовая глубина : 16 бит
Метод сжатия : С потерями
Задержка видео : 1 с. 896 мс.
Размер потока : 144 Мбайт (10%)
Выравнивание : Разделение по промежуткам
Продолжительность промежутка : 32 мс. (1,53 видеокадра)

Скриншот c названием фильма

Скриншоты

Трейлер

Яндекс.Метрика
Рейтинг@Mail.ru