Пустой дом / Bin-jip (Ким Ки Дук / Kim Ki Duk) [2004 г., драма, мелодрама, криминал, HDRip] DVO

 

Создавать темы 29-Сен-2016 05:47

-Пустой дом / Bin-jip-- Производство: Корея Южная, Япония
Год выпуска: 2004 г.
Жанр: драма, мелодрама, криминал
Продолжительность: 01:27:50Мировая премьера: 7 сентября 2004
Российская премьера: 4 ноября 2004, «Интерсинема-Арт»
Дата выхода DVD: 21 июня 2007, «Союз-Видео»
Перевод: Профессиональный (двухголосый, закадровый) [Мистерия DVD, R5]
Режиссер: Ким Ки Дук / Kim Ki Duk-В ролях: Ли Сын Ён, Ли Хун Кён, Хюк-хо Квон, Чжон-хо Чои, Ли Джу Сок, Ми-сук Ли, Мун Сон Хек, Пак Чи А, Джа-ёнг Янг, Дах-Ха Ли-Описание: Весь день Тэ-сук разъезжает на мотоцикле по городу, развешивая на дверях домов рекламные плакаты. А вечером он сорвет плакат с того дома, где отсутствует хозяин, и временно пропишется в его квартире.Тэ-сук моет посуду, стирает белье и чинит вещи. В одном из домов он не замечает странную молчаливую женщину. Сун-хва давно несчастлива в браке, страдает от побоев мужа и, улучив момент, бежит с Тэ-суком, принимая его образ жизни и меняя одну квартиру за другой, один дом за другим.-
Качество видео: HDRip
Контейнер: AVI
Видео кодек: XviD
Аудио кодек: AC3
Видео: 688x368 (1.87:1), 23.976 fps, XviD build 73 ~1966 kbps avg, 0.32 bit/pixel
Аудио: 48 kHz, AC3 Dolby Digital, 3/2 (L,C,R,l,r) + LFE ch, ~384 kbps
Cубтитры: отсутствуют

Доп. информация

В американском прокате фильм вышел под названием «3-Iron» (3-Iron — название клюшки для гольфа, которую использовал главный герой для того, чтобы расправиться с мужем Сун-ва).

Награды

Сан-Себастьян, 2005 год
Победитель (1):
Премия международной ассоциации кинокритиков (ФИПРЕССИ) - лучший фильм года
Венецианский кинофестиваль, 2004 год
Победитель (4):
Приз ФИПРЕССИ (конкурсная программа)
Приз всемирной католической ассоциации по коммуникациям - особое упоминание
Малый золотой лев
Специальная режиссерская награда ( Ким Ки Дук )
Номинации (1):
Золотой лев
Европейская киноакадемия, 2004 год
Номинации (1):
Премия Screen International Award

Рецензия

НаслаждайтесьКим Ки Док (Дук) всегда поражает зрителя настоящим КИНЕМАТОГРАФОМ. Шедевр в пустоте дорог и вымышленных имен. Только фотография в кармане и любовь в душе. Суровая реальность следует за тобой, но ты играешь наперекор всем. Ты не принадлежишь обществу, государству, закону и полиции. Ты свободен как тень, ты свободен как птица. Всё имеет другой иной смысл в отражении твоей судьбы, кто она идущая за тобой. Верность, преданность или просто любовь, убежавшая от тирании мужа, убежавшая на волю вместе с тобой. Ты подарил ей свободу, ты даришь ей целый мир, не прося ничего взамен. Ты всего лишь рекламный лист сорвавшийся с ручки двери и летящий по ночным улицам города вместе с ней…Фильм цепляет, фильм завораживает, фильм притягивает. Выключите свет, раскурите кальян, налейте немного мартини и наслаждайтесь, отдыхайте вместе с непредсказуемым режиссером снявшим столь замечательный фильм.10 из 10

Media Info

Общее
Полное имя : D:\D\Пустой дом\Pustoy dom.2004.HDRip.[pirat.ca].avi
Формат : AVI
Формат/Информация : Audio Video Interleave
Размер файла : 1,45 Гбайт
Продолжительность : 1 ч. 27 м.
Общий поток : 2359 Кбит/сек
Название фильма : Pustoy dom.2004.HDRip.[pirat.ca]
Программа кодирования : VirtualDubMod 1.5.10.3 | www.virtualdub-fr.org || (build 2550/release)Видео
Идентификатор : 0
Формат : MPEG-4 Visual
Профиль формата : Advanced [email protected]/* */
Параметр BVOP формата : 1
Параметр QPel формата : Нет
Параметр GMC формата : Без точки перехода
Параметр матрицы формата : Выборочная
Идентификатор кодека : XVID
Идентификатор кодека/Подсказка : XviD
Продолжительность : 1 ч. 27 м.
Битрейт : 1967 Кбит/сек
Ширина : 688 пикселей
Высота : 368 пикселей
Соотношение сторон : 1,85:1
Частота кадров : 23,976 (23976/1000) кадра/сек
Цветовое пространство : YUV
Субдискретизация насыщенности : 4:2:0
Битовая глубина : 8 бит
Тип развёртки : Прогрессивная
Метод сжатия : С потерями
Бит/(Пиксели*Кадры) : 0.324
Размер потока : 1,21 Гбайт (83%)
Библиотека кодирования : XviD 73Аудио
Идентификатор : 1
Формат : AC-3
Формат/Информация : Audio Coding 3
Расширение режима : CM (complete main)
Параметр Endianness формата : Big
Идентификатор кодека : 2000
Продолжительность : 1 ч. 27 м.
Вид битрейта : Постоянный
Битрейт : 384 Кбит/сек
Каналы : 6 каналов
Расположение каналов : Front: L C R, Side: L R, LFE
Частота : 48,0 КГц
Частота кадров : 31,250 кадров/сек (1536 spf)
Метод сжатия : С потерями
Размер потока : 241 Мбайт (16%)
Выравнивание : Разделение по промежуткам
Продолжительность промежутка : 42 мс. (1,00 видеокадр)
Время предзагрузки промежутка : 500 мс.

Скриншот c названием фильма

Скриншоты

Трейлер

Яндекс.Метрика
Рейтинг@Mail.ru