Comedy Woman. Лучшее (Наталья Еприкян) [2016.09.30, ТВ-Шоу, юмор, SATRip]

 

Создавать темы 30-Сен-2016 16:08

- Comedy Woman. Лучшее - Телекомпания: ТНТ
Жанр: ТВ-Шоу, юмор
Ведущий: Наталья Еприкян
Участники:
Наталья Еприкян, Екатерина Скулкина, Екатерина Варнава, Мария Кравченко, Полина Сибагатуллина, Татьяна Морозова, Надежда Сысоева, Надежда Ангарская, Марина Федункив
Описание:
Развлекательное шоу, в котором пресловутая женская логика оказывается как нельзя кстати. Девушки с выдающимся юмором и не менее выдающимися формами не позволят заскучать самому закоренелому снобу и накажут смехом даже законченного шовиниста. Сomedy Woman - место, в котором приятно побывать и не стыдно об этом вспомнить! Особенно зажигательные танцы, очень смешные шутки, а также жизненные истории, в которых каждая дама точно узнает себя и своих подруг.
Релиз от: Taz
Продолжительность: ~ 00:47:14
Качество видео: SATRip
Субтитры: Отсутствуют
Видео: MPEG4, XviD, 720x400 (16:9), 25.000 fps, 1 796 Kbps (0.249 bit/pixel)
Аудио: MP3, 48.0 KHz, 2 ch, 128 Kbps, CBR

Mediainfo:

Общее
Полное имя                               : D:\[1]\Comedy Woman\Comedy Woman (2016.09.30).avi
Формат                                   : AVI
Формат/Информация                        : Audio Video Interleave
Размер файла                             : 655 Мбайт
Продолжительность                        : 47 м.
Общий поток                              : 1937 Кбит/сек
Видео
Идентификатор                            : 0
Формат                                   : MPEG-4 Visual
Профиль формата                          : Advanced [email protected]
Параметр BVOP формата                    : 2
Параметр QPel формата                    : Нет
Параметр GMC формата                     : Без точки перехода
Параметр матрицы формата                 : Default (H.263)
Идентификатор кодека                     : XVID
Идентификатор кодека/Подсказка           : XviD
Продолжительность                        : 47 м.
Битрейт                                  : 1796 Кбит/сек
Ширина                                   : 720 пикселей
Высота                                   : 400 пикселей
Соотношение сторон                       : 16:9
Частота кадров                           : 25,000 кадров/сек
Цветовое пространство                    : YUV
Субдискретизация насыщенности            : 4:2:0
Битовая глубина                          : 8 бит
Тип развёртки                            : Прогрессивная
Метод сжатия                             : С потерями
Бит/(Пиксели*Кадры)                      : 0.249
Размер потока                            : 607 Мбайт (93%)
Библиотека кодирования                   : XviD 1.2.1 (UTC 2008-12-04)
Аудио
Идентификатор                            : 1
Формат                                   : MPEG Audio
Версия формата                           : Version 1
Профиль формата                          : Layer 3
Режим                                    : Joint stereo
Расширение режима                        : MS Stereo
Идентификатор кодека                     : 55
Идентификатор кодека/Подсказка           : MP3
Продолжительность                        : 47 м.
Вид битрейта                             : Постоянный
Битрейт                                  : 128 Кбит/сек
Каналы                                   : 2 канала
Частота                                  : 48,0 КГц
Метод сжатия                             : С потерями
Размер потока                            : 43,3 Мбайт (7%)
Выравнивание                             : Соединение по промежуткам
Продолжительность промежутка             : 24  мс. (0,60 видеокадр)
Библиотека кодирования                   : LAME3.99r
Настройки программы                      : -m j -V 4 -q 9 -lowpass 17 -b 128
Скриншоты:
Яндекс.Метрика
Рейтинг@Mail.ru