Элементарно / Elementary (Сезон 2, серий 12 из 14) (Джон Полсон / John Polson ...) [2013г., Детектив, Криминал, Драма, WEB-DLRip] MVO (LostFilm) [обновляемая]

 

Создавать темы 08-Янв-2014 00:53

Элементарно / Elementary
«New Holmes. New Watson. New York.»
- Русское название: Элементарно
Оригинальное название: Elementary
Страна: США
Год выпуска: 2013
Жанр: Детектив, Криминал, Драма-Озвучка: Студия LostFilm
Перевод: Многоголосый закадровый, профессиональный-Премьера (мир): 27 сентября 2012, ...
Премьера (РФ): 14 октября 2012-Режиссер: Джон Полсон / John Polson, Эндрю Бернштейн / Andrew Bernstein, Сет Манн / Seith Mann ...
В главных ролях: Джонни Ли Миллер, Люси Лью, Эйдан Куинн, Даллас Робертс, Мэнни Перез, Джонатан Уолкер, Кристен Буш, Крэйг Уолкер, Майкл Натансон, Randal Turner ...-Описание фильма:
Британский сыщик Шерлок Холмс — бывший наркоман, который был отправлен в Нью-Йорк на лечение в реабилитационный центр, а по завершении лечения остался в Бруклине как консультант Нью-Йоркской полиции. В расследованиях ему помогает его компаньон-наблюдатель доктор Джоан Ватсон, нанятая его отцом.-Сезон: 2
Серии: 12 из 12 серий
Продолжительность: ~ 00:43:00 мин серия-Качество видео: WEB-DLRip
Формат: AVI
Видеокодек: XviD
Аудиокодек: Mp3
Видео: MPEG-4 Visual at 1915 Кбит/сек, 720 x 400 (1.800) at 23.976 fps, 0.277 Бит/Пиксели
Аудио: MPEG Audio at 192 Кбит/сек, 2 канала, 48,0 КГц
- --

Список серий:

  • Шаг № 9 (Step Nine)
  • Икс равно... (Solve for X)
  • Всё человечество (We Are Everyone)
  • Отравленная ручка (Poison Pen)
  • Дела давно минувших дней (Ancient History)
  • Неестественный союз (An Unnatural Arrangement)
  • Маркиза (The Marchioness)
  • Кровь - не вода (Blood Is Thicker)
  • Под угрозой (On the Line)
  • Колебания (Tremors)
  • Внутреннее расследование (Internal Audit)
  • Исчадие ада (The Diabolical Kind)
-

MediaInfo:

Общее
Полное имя                               : E:\_Сериалы\Элементарно\Elementary 2 - LostFilm\Elementary.S02E01.rus.LostFilm.TV.avi
Формат                                   : AVI
Формат/Информация                        : Audio Video Interleave
Размер файла                             : 658 Мбайт
Продолжительность                        : 43 м.
Режим общего битрейта                    : Переменный
Общий поток                              : 2117 Кбит/сек
Программа кодирования                    : Nandub v1.0rc2
Библиотека кодирования                   : Nandub build 1853/release
Видео
Идентификатор                            : 0
Формат                                   : MPEG-4 Visual
Профиль формата                          : [email protected]
Параметр BVOP формата                    : Нет
Параметр QPel формата                    : Нет
Параметр GMC формата                     : Без точки перехода
Параметр матрицы формата                 : Default (H.263)
Идентификатор кодека                     : XVID
Идентификатор кодека/Подсказка           : XviD
Продолжительность                        : 43 м.
Битрейт                                  : 1915 Кбит/сек
Ширина                                   : 720 пикселей
Высота                                   : 400 пикселей
Соотношение сторон                       : 16:9
Частота кадров                           : 23,976 кадра/сек
Цветовое пространство                    : YUV
Субдискретизация насыщенности            : 4:2:0
Битовая глубина                          : 8 бит
Тип развёртки                            : Прогрессивная
Метод сжатия                             : С потерями
Бит/(Пиксели*Кадры)                      : 0.277
Размер потока                            : 595 Мбайт (90%)
Библиотека кодирования                   : XviD 1.2.1 (UTC 2008-12-04)
Аудио
Идентификатор                            : 1
Формат                                   : MPEG Audio
Версия формата                           : Version 1
Профиль формата                          : Layer 3
Режим                                    : Joint stereo
Расширение режима                        : MS Stereo
Идентификатор кодека                     : 55
Идентификатор кодека/Подсказка           : MP3
Продолжительность                        : 43 м.
Вид битрейта                             : Переменный
Битрейт                                  : 192 Кбит/сек
Каналы                                   : 2 канала
Частота                                  : 48,0 КГц
Метод сжатия                             : С потерями
Размер потока                            : 58,8 Мбайт (9%)
Выравнивание                             : Соединение по промежуткам
Продолжительность промежутка             : 24  мс. (0,58 видеокадр)
Время предзагрузки промежутка            : 495  мс.
Библиотека кодирования                   : LAME3.97b
Настройки программы                      : -m j -V 4 -q 3 -lowpass 18.6 --abr 192
-

Скриншот c названием фильма

-Скриншоты:
-

Еще

-

Внимание! Раздача ведётся путём добавления новых серий!

Внимание! Раздача ведётся путём добавления новых серий; при каждом добавлении создётся новый торрент. Чтобы начать докачку новой серии, пользователям необходимо сделать следующее:
(1) остановить скачивание,
(2) удалить старый торрент у себя из клиента (старые серии удалять не надо),
(3) скачать новый торрент и запустить его у себя в клиенте вместо старого, при этом указать клиенту путь в старую папку куда и должно происходить скачивание новых серий.
Ваш клиент при этом должен произвести хеширование (проверку) старой папки (если не производит сам - помогите ему сделать это), и будет докачивать только те серии которых у вас ещё нет. Старые серии при этом не удаляются, а продолжают раздаваться!
Eсли вы уже удалили старые серии, то предотвратить повторную закачку старых серий можно, отжав галочку в соответсвующих местах при запуске нового торрента.
-Добавлена двенадцатая серия второго сезона
Яндекс.Метрика
Рейтинг@Mail.ru